Ссылка на приватное зеркало нашего сайта всего за 1$. Внимание количество ограничено!!!

2 сезон

iTunes

1 сезон

1

iTunes

iTunes

iTunes

1 сезон

RePack

30

ИГРА 18+

pack

ВАЖНО

!!Акция!!

Alien_RageХит недели

RePack

MK11
pack

Забери бонус

RePack

jed

!!Акция!!

Alien_Rage

RePack

fifa19

RePack

Assassins Creed: Odyssey

RePack

NEED FOR SPEED™ PAYBACK

4 сезон

9 сезон

Бесстыжие 9 сезон

Все сериалы

все сериалы на PB.wtf

RePack

FAR CRY 5
  

Любовь между строк / Gut gegen Nordwind (Ванесса Йопп) [2019, Драма, мелодрама, BDRip 1080p] DUB [iTunes] pb.wtf

Любовь между строк через торрент pb.wtf

Раздают: 1 [ 1 KB/s ]
Размер: 13.37 GB | Добавлен: 1 мес. 18 д. назад | Торрент скачан:31 раз
Скачать  

07-09-2020 03:01 Любовь между строк Скачать торрент  

Любовь между строк | Gut gegen Nordwind
Год выпуска: 2019
Страна: Германия
Студия: Komplizen Film, Erfttal Film, Deutsche Columbia Pictures Film Produktion
Жанр: Драма, мелодрама
Продолжительность: 02:02:32
Перевод: Дублированный | iTunes
Субтитры: отсутствуют

Режиссер: Ванесса Йопп

rating

В ролях: Клаудия Эйзингер, Александр Фелинг, Пит Фукс, Анке Фюнфштюк, Мориц Фюрманн, Катарина Гирон, Джина Хенкел, Йоран Ляйхер, Доминик Марингер, Джоан Паску

Описание: Эмми Ротнер хочет всего лишь отказаться от подписки на газету, но совершает опечатку в адресе получателя. Письмо оказывается в почтовом ящике Лео Лайке, с этого и начинается их долгая переписка и любовная история.

Качество: BDRip 1080p
Формат: MKV

Видео: MPEG-4 AVC, 1920x804, 14.2 Mbit/s, 23.976 fps
Аудио#1: 48 kHz, AC3, 5.1, 384 Kbps | iTunes | RUS |
Аудио#2: 48 kHz, E-AC3, 5.1, 1023 Kbps | Оригинал | GER |
скриншот  скриншот  скриншот  скриншот  скриншот  

General
Unique ID: 17058345242707034025791371272937057797 (0xCD5515AB73B6E1121586EA8F5E0AE05)
Complete name: D:Video111Gut.gegen.Nordwind.2019.BDRip.1080p.seleZen.mkv
Format: Matroska
Format version: Version 4
File size: 13.4 GiB
Duration: 2 h 2 min
Overall bit rate: 15.6 Mb/s
Movie name: Gut gegen Nordwind 2019 from селезень
Encoded date: UTC 2020-09-06 19:34:23
Writing application: mkvmerge v40.0.0 ('Old Town Road + Pony') 64-bit
Writing library: libebml v1.3.9 + libmatroska v1.5.2

Video
ID: 1
Format: AVC
Format/Info: Advanced Video Codec
Format profile: High@L4.1
Format settings: CABAC / 5 Ref Frames
Format settings, CABAC: Yes
Format settings, Reference: 5 frames
Codec ID: V_MPEG4/ISO/AVC
Duration: 2 h 2 min
Bit rate: 14.2 Mb/s
Width: 1 920 pixels
Height: 804 pixels
Display aspect ratio: 2.40:1
Frame rate mode: Constant
Frame rate: 23.976 (24000/1001) FPS
Color space: YUV
Chroma subsampling: 4:2:0
Bit depth: 8 bits
Scan type: Progressive
Bits/(Pixel*Frame): 0.384
Stream size: 12.2 GiB (91%)
Title: -EA
Writing library: x264 core 159 r2991+49 524a90c t_mod_New [0-bit@all X86_64]
Encoding settings: cabac=1 / ref=5 / deblock=1:-3:-3 / analyse=0x3:0x133 / me=umh / subme=10 / psy=1 / fade_compensate=0.00 / psy_rd=0.97:0.00 / mixed_ref=1 / me_range=32 / chroma_me=1 / trellis=2 / 8x8dct=1 / cqm=0 / deadzone=21, 11 / fast_pskip=0 / chroma_qp_offset=-2 / threads=24 / lookahead_threads=6 / sliced_threads=0 / nr=0 / decimate=0 / interlaced=0 / bluray_compat=0 / constrained_intra=0 / fgo=0 / bframes=11 / b_pyramid=2 / b_adapt=2 / b_bias=0 / direct=3 / weightb=1 / open_gop=0 / weightp=2 / keyint=240 / keyint_min=23 / scenecut=40 / intra_refresh=0 / rc_lookahead=60 / rc=crf / mbtree=0 / crf=15.6500 / qcomp=0.65 / qpmin=0:0:0 / qpmax=69:69:69 / qpstep=4 / vbv_maxrate=62500 / vbv_bufsize=78125 / crf_max=0.0 / nal_hrd=none / filler=0 / ip_ratio=1.35 / pb_ratio=1.25 / aq=3:0.85 / aq-sensitivity=10.00 / aq-factor=1.00:1.00:1.00 / aq2=0 / aq3=0
Language: German
Default: Yes
Forced: No
Color range: Limited
Color primaries: BT.709
Transfer characteristics: BT.709
Matrix coefficients: BT.709

Audio #1
ID: 2
Format: AC-3
Format/Info: Audio Coding 3
Commercial name: Dolby Digital
Codec ID: A_AC3
Duration: 2 h 2 min
Bit rate mode: Constant
Bit rate: 384 kb/s
Channel(s): 6 channels
Channel layout: L R C LFE Ls Rs
Sampling rate: 48.0 kHz
Frame rate: 31.250 FPS (1536 SPF)
Compression mode: Lossy
Stream size: 337 MiB (2%)
Title: iTunes
Language: Russian
Service kind: Complete Main
Default: Yes
Forced: Yes

Audio #2
ID: 3
Format: E-AC-3
Format/Info: Enhanced AC-3
Commercial name: Dolby Digital Plus
Codec ID: A_EAC3
Duration: 2 h 2 min
Bit rate mode: Constant
Bit rate: 1 023 kb/s
Channel(s): 6 channels
Channel layout: L R C LFE Ls Rs
Sampling rate: 48.0 kHz
Frame rate: 93.750 FPS (512 SPF)
Compression mode: Lossy
Stream size: 897 MiB (7%)
Title: Original
Language: German
Service kind: Complete Main
Default: No
Forced: No

Menu
00:00:00.000: :Chapter 01
00:07:57.519: :Chapter 02
00:14:29.118: :Chapter 03
00:22:35.813: :Chapter 04
00:32:54.890: :Chapter 05
00:41:53.010: :Chapter 06
00:46:11.894: :Chapter 07
00:51:57.614: :Chapter 08
01:00:37.092: :Chapter 09
01:07:07.440: :Chapter 10
01:14:39.725: :Chapter 11
01:24:25.102: :Chapter 12
01:33:00.074: :Chapter 13
01:42:41.447: :Chapter 14
01:46:23.502: :Chapter 15
01:51:48.702: :Chapter 16

pb.wtf



Скачать Любовь между строк через торрент https://a.radikal.ru/a29/2009/98/02391d215eee.jpg Скачать фильм Любовь между строк через торрент бесплантно в хорошем качестве Описание: Эмми Ротнер хочет всего лишь отказаться от подписки на газету, но совершает опечатку в адресе получателя. Письмо оказывается в ... 10 10 4
Торрент: Зарегистрирован [2020-09-07 03:01] · скачан: 31 раз
Статус: √ проверено
Размер: 13.37 GB
Как cкачать? Как скачать Любовь между строк через торрент | qTorrent

% Раздел Тема Автор DL S | L
Фильмы 2019-2020 [DVDrip, WEB-DLRip, HDrip] (DUB, MVO) [ 2.13 GB ] Любовь между строк / Gut gegen Nordwind [2019 BDRip] - Twi7ter Скачать
37 | 0
Фильмы 2019-2020 [DVDrip, WEB-DLRip, HDrip] (DUB, MVO) [ 1.46 GB ] Любовь между строк / Gut gegen Nordwind [2019 BDRip] - Twi7ter Скачать
41 | 1
Фильмы 2019-2020 [DVDrip, WEB-DLRip, HDrip] (DUB, MVO) [ 2.18 GB ] Любовь между строк / Gut gegen Nordwind [2019 BDRip] DUB [ ] bober100 Скачать
4 | 0
Фильмы 2019-2020 [DVDrip, WEB-DLRip, HDrip] (DUB, MVO) [ 1.46 GB ] Любовь между строк / Gut gegen Nordwind [2019 BDRip] DUB [ ] bober100 Скачать
2 | 0
Фильмы 2019-2020 [DVDrip, WEB-DLRip, HDrip] (DUB, MVO) [ 751 MB ] Любовь между строк / Gut gegen Nordwind [2019 BDRip-AVC] от MediaBit Lithuania Скачать
2 | 0
Фильмы (Blu-ray, BD-Remux, HDDVD) [ 27.45 GB ] Любовь между строк / Gut gegen Nordwind [2019 BD Remux 1080p] bober100 Скачать
1 | 0
Фильмы [HD 720p, 1080p] (Хороший звук DUB, MVO) [ 6.59 GB ] Любовь между строк / Gut gegen Nordwind [2019 BDRip 720p] bober100 Скачать
3 | 0

28-11-2019 20:33  

Отключить всю рекламу на сайте

    Дорогой пользователь! Огромная просьба, поблагодарите релизера, оцените раздачу и оставьте свои комментарий, если Вы скачали Любовь между строк через торрент бесплатно! Внесите свою лепту в развитие PiratBit!
    Комментировать посты могут только пользователи прошедшие не сложную регистрацию
    Показать сообщения:    

    Любовь между строк через торрент
    Скачать бесплатно Любовь между строк
    Любовь между строк скачать торрент
    Любовь между строк смотреть онлайн
    Cкачать фильм Любовь между строк бесплатно
    Любовь между строк скачать торрент в хорошем качестве
    Любовь между строк смотреть онлайн бесплатно в хорошем качестве


    Вы не можете начинать темы
    Вы не можете отвечать на сообщения
    Вы не можете редактировать свои сообщения
    Вы не можете удалять свои сообщения
    Вы не можете голосовать в опросах
    Вы не можете прикреплять файлы к сообщениям
    Вы можете скачивать файлы