2 сезон

iTunes

MVO

1

2 сезон

iTunes

1 сезон

1 сезон

RePack

30

Новинка

ВАЖНО

ИГРА 18+

pack

RePack

MK11
pack

Легкие деньги

RePack

jed

RePack

fifa19

RePack

RDR2

RePack

NEED FOR SPEED™ PAYBACK

4 сезон

9 сезон

Бесстыжие 9 сезон

Все сериалы

все сериалы на PB.wtf

RePack

FAR CRY 5

Anonymous, добрый день, мы не успеваем собрать деньги на оплату серверов за декабрь и январь, помогите нам пожалуйста в это трудное время. В качестве благодарности мы отключим Вам всю рекламу на сайте (укажите свой ник в строку Ваше имя)!

×
  
Magnet ссылка

Шугалей 2 (Максим Бриус) [2020, Детектив, приключения, HDTVRip 720p] pb.wtf

Шугалей 2 через торрент pb.wtf

Раздают: 1 [ 127 KB/s ]
Размер: 3.07 GB | Добавлен: 4 мес. 21 д. назад | Торрент скачан:219 раз
Скачать  

07-09-2020 03:27 Шугалей 2 Скачать торрент  

Шугалей 2
Год выпуска: 2020
Страна: Россия, Тунис
Выпущено: «Кино альянс»
Жанр: Детектив, приключения
Продолжительность: 01:59:04
Перевод: Не требуется
Субтитры: отсутствуют

Режиссер: Максим Бриус



В ролях: Кирилл Полухин, Олег Абалян, Сергей Яценюк

Описание: Фильм основан на реальных событиях. Российские социологи, Максим Шугалей и его спутник и переводчик Самер Суэйфан, отправляются в страну, разрываемую на части воинствующими группировками, по официальному приглашению. Их задача — проведение исследования, которое должно было бы положить конец боевым действиям. Однако в ходе работы в их руки попадает информация, которая может дорого стоить «марионеточному» правительству и не должна просочиться за пределы Ливии. В результате похищения русские специалисты оказываются в частной тюрьме и больше года, переживая пытки и унижения, ждут хотя бы официального обвинения. Дипломатические попытки мирно решить вопрос заходят в тупик, и российская сторона начинает готовить спасательную операцию.

Качество: HDTVRip 720p
Формат: MKV

Видео: 1280x536 (2,40:1), 25 fps, AVC MPEG-4 (x264), High@L4.1 3500 kbps , 0.204 bit/pixel
Аудио: 48.0 kHz, AC3 Dolby Digital, 2/0 (L,R) ch, ~ 192 kbps
скриншот  скриншот  скриншот  скриншот  

Общее
Уникальный идентификатор : 248524477051852679929175502170814856883 (0xBAF812BEFCBC5E849085BC7E9CFEBEB3)
Полное имя : D:\Shugalei-2.2020.HDTVRip.(720p).ExKinoRay.mkv
Формат : Matroska
Версия формата : Version 2
Размер файла : 3,07 Гбайт
Продолжительность : 1 ч. 59 м.
Общий поток : 3692 Кбит/сек
Дата кодирования : UTC 2020-09-06 23:08:03
Программа кодирования : mkvmerge v7.8.0 ('River Man') 32bit built on Apr 3 2015 12:11:22
Библиотека кодирования : libebml v1.3.1 + libmatroska v1.4.2

Видео
Идентификатор : 1
Формат : AVC
Формат/Информация : Advanced Video Codec
Профиль формата : High@L4.1
Параметр CABAC формата : Да
Параметр RefFrames формата : 9 кадров
Идентификатор кодека : V_MPEG4/ISO/AVC
Продолжительность : 1 ч. 59 м.
Битрейт : 3500 Кбит/сек
Ширина : 1280 пикселей
Высота : 536 пикселей
Соотношение сторон : 2,40:1
Режим частоты кадров : Постоянный
Частота кадров : 25,000 кадров/сек
Цветовое пространство : YUV
Субдискретизация насыщенности : 4:2:0
Битовая глубина : 8 бит
Тип развёртки : Прогрессивная
Бит/(Пиксели*Кадры) : 0.204
Размер потока : 2,85 Гбайт (93%)
Библиотека кодирования : x264 core 146 r2538 121396c
Настройки программы : cabac=1 / ref=9 / deblock=1:-3:-3 / analyse=0x3:0x113 / me=umh / subme=11 / psy=1 / psy_rd=1.00:0.20 / mixed_ref=1 / me_range=32 / chroma_me=1 / trellis=2 / 8x8dct=1 / cqm=0 / deadzone=21,11 / fast_pskip=1 / chroma_qp_offset=-3 / threads=24 / lookahead_threads=8 / sliced_threads=0 / nr=0 / decimate=0 / interlaced=0 / bluray_compat=0 / constrained_intra=0 / bframes=10 / b_pyramid=2 / b_adapt=2 / b_bias=0 / direct=3 / weightb=1 / open_gop=0 / weightp=2 / keyint=250 / keyint_min=25 / scenecut=40 / intra_refresh=0 / rc_lookahead=60 / rc=2pass / mbtree=1 / bitrate=3500 / ratetol=1.0 / qcomp=0.60 / qpmin=0 / qpmax=69 / qpstep=4 / cplxblur=20.0 / qblur=0.5 / vbv_maxrate=14000 / vbv_bufsize=14000 / nal_hrd=none / filler=0 / ip_ratio=1.40 / aq=3:1.40
Default : Да
Forced : Нет
Цветовой диапазон : Limited
Основные цвета : BT.709
Характеристики трансфера : BT.709
Коэффициенты матрицы : BT.709

Аудио
Идентификатор : 2
Формат : AC-3
Формат/Информация : Audio Coding 3
Расширение режима : CM (complete main)
Параметр Endianness формата : Big
Идентификатор кодека : A_AC3
Продолжительность : 1 ч. 59 м.
Вид битрейта : Постоянный
Битрейт : 192 Кбит/сек
Каналы : 2 канала
Расположение каналов : Front: L R
Частота : 48,0 КГц
Частота кадров : 31,250 кадров/сек (1536 spf)
Метод сжатия : С потерями
Размер потока : 164 Мбайт (5%)
Default : Да
Forced : Нет

pb.wtf



Скачать Шугалей 2 через торрент https://img11.lostpic.net/2020/09/06/47b157baf9cb611643a7d9569e93da34.jpg Скачать фильм Шугалей 2 через торрент бесплантно в хорошем качестве Описание: Фильм основан на реальных событиях. Российские социологи, Максим Шугалей и его спутник и переводчик Самер Суэйфан, отправляются в ... 8.4 10 11
Торрент: Зарегистрирован [2020-09-07 03:27] · скачан: 219 раз
Статус: √ проверено
Размер: 3.07 GB
Как cкачать? Как скачать Шугалей 2 через торрент | UTorrent

% Раздел Тема Автор DL S | L
T Наши фильмы (HD, WEB-DL 720p, 1080p) [ 4.09 GB ] Шугалей 2 [2020 WEB-DL 1080p] bober100 Скачать
2 | 0
Наши новые фильмы 2020 - 2021 [ 1.47 GB ] Шугалей 2 [2020 WEB-DLRip] bober100 Скачать
1 | 0
Наши новые фильмы 2020 - 2021 [ 2.05 GB ] Шугалей 2 [2020 HDTVRip-AVC] bober100 Скачать
2 | 0
Наши новые фильмы 2020 - 2021 [ 1.46 GB ] Шугалей 2 [2020 HDTVRip] bober100 Скачать
6 | 0
Наши фильмы (HD, WEB-DL 720p, 1080p) [ 4.18 GB ] Шугалей 2 [2020 HDTV Оригинал] Бумер Скачать
2 | 0
Наши новые фильмы 2020 - 2021 [ 1.63 GB ] Шугалей 2 [2020 SATRip] Russian Mafia Скачать
1 | 0

28-11-2019 20:33  

Отключить всю рекламу на сайте

22-11-2020 19:59 Шугалей 2 Скачать торрент  

Очередная жидомосковитская пропаганда.pb.wtf



    Дорогой пользователь! Огромная просьба, поблагодарите релизера, оцените раздачу и оставьте свои комментарий, если Вы скачали Шугалей 2 через торрент бесплатно! Внесите свою лепту в развитие PiratBit!
    Комментировать посты могут только пользователи прошедшие не сложную регистрацию
    Показать сообщения:    

    Шугалей 2 через торрент
    Скачать бесплатно Шугалей 2
    Шугалей 2 скачать торрент
    Шугалей 2 смотреть онлайн
    Cкачать фильм Шугалей 2 бесплатно
    Шугалей 2 скачать торрент в хорошем качестве
    Шугалей 2 смотреть онлайн бесплатно в хорошем качестве


    Вы не можете начинать темы
    Вы не можете отвечать на сообщения
    Вы не можете редактировать свои сообщения
    Вы не можете удалять свои сообщения
    Вы не можете голосовать в опросах
    Вы не можете прикреплять файлы к сообщениям
    Вы можете скачивать файлы