2 сезон

iTunes

MVO

1

2 сезон

iTunes

iTunes

1 сезон

RePack

30

Ultimate

ВАЖНО

ИГРА 18+

pack

RePack

MK11
pack

Легкие деньги

RePack

jed

RePack

fifa19

RePack

RDR2

RePack

NEED FOR SPEED™ PAYBACK

4 сезон

9 сезон

Бесстыжие 9 сезон

Все сериалы

все сериалы на PB.wtf

RePack

FAR CRY 5

Anonymous, доброе утро, мы не успеваем собрать деньги на оплату серверов за декабрь и январь, помогите нам пожалуйста в это трудное время. В качестве благодарности мы отключим Вам всю рекламу на сайте (укажите свой ник в строку Ваше имя)!

×
  
Magnet ссылка

Соло / Solo (Норберто Барба) [1996 г., Фантастика, боевик, триллер, WEB-DLRip 720p / 60 FPS, Профессиональный (многоголосый)] от R.G. HD-Films pb.wtf

Соло через торрент pb.wtf

Размер: 3.79 GB | Добавлен: 4 мес. 20 д. назад | Торрент скачан:33 раза
Скачать  

07-09-2020 11:48 Соло Скачать торрент  

Соло / Solo
Год выпуска: 1996
Страна: Мексика, США
Жанр: Фантастика, боевик, триллер
Продолжительность: 01:33:50
Перевод: Профессиональный (многоголосый)
Субтитры: Russian, English

Режиссер: Норберто Барба

Бюджет: $19 000 000
Премьера в мире: 23 августа 1996

rating

В ролях: Марио Ван Пиблз, Бэрри Корбин, Уильям Сэдлер, Хайме Гомес, Демиан Бишир, Сейди Лопез, Абрахам Вердуско, Хоакин Гарридо, Уильям Уоллес, Эдриан Броуди

Описание: Экранизация романа Роберта Мэйсона "Оружие". Он - универсальный солдат, способный сражаться и побеждать в любых условиях. У него нет семьи, нет друзей. Он похож на человека, но сделан из полимеров и микросхем. Он - Соло, машина с единственной программой - убивать. Но программа дает сбой. Соло начинает думать как человек. У него появляются человеческие чувства и друзья. Но жестокие военные, создавшие Соло, объявляют на него охоту. И Соло начинает беспощадную войну.

Доп. информация: Исходник видео WEB-DL Amazon STARZ - периодически появляется логотип

Качество: WEB-DLRip 720p / 60 FPS
Формат: MKV
Видео кодек: H.264
Аудио кодек: AC3
Видео: x264, 1280 x 720 ( 16:9 ), 5398 kbps, 60,000 fps, ( 0.098 bpp)
Аудио#1: Русский, AC-3, 48.0 KHz, 6 ch, 384 Kbps MVO ( Видеосервис )
Релиз от:

скриншот   скриншот   скриншот   скриншот   скриншот   скриншот  Автор рипа: slaventi-69
x264 [info]: frame I:1323 Avg QP:17.80 size: 94738
x264 [info]: frame P:88857 Avg QP:18.56 size: 22558
x264 [info]: frame B:247323 Avg QP:21.43 size: 6736
x264 [info]: consecutive B-frames: 4.7% 3.7% 10.1% 17.2% 54.1% 10.2%


Общее
Уникальный идентификатор : 234467711028015331512288085474556405782 (0xB064D6AC443C010E87B5D867A7C26816)
Полное имя : F:\Solo.(1996).WEB-DLRip.720p.(60 Fps).mkv
Формат : Matroska
Версия формата : Version 4
Размер файла : 3,79 Гбайт
Продолжительность : 1 ч. 33 м.
Общий поток : 5786 Кбит/сек
Название фильма : Соло / Solo (1996) WEB-DLRip 720p (60 Fps)
Дата кодирования : UTC 2020-08-08 17:15:00
Программа кодирования : mkvmerge v9.1.0 ('Little Earthquakes') 64bit
Библиотека кодирования : libebml v1.3.3 + libmatroska v1.4.4

Видео
Идентификатор : 1
Формат : AVC
Формат/Информация : Advanced Video Codec
Профиль формата : High@L4.1
Настройки формата : CABAC / 8 Ref Frames
Параметр CABAC формата : Да
Параметр RefFrames формата : 8 кадров
Идентификатор кодека : V_MPEG4/ISO/AVC
Продолжительность : 1 ч. 33 м.
Битрейт : 5398 Кбит/сек
Ширина : 1280 пикселей
Высота : 720 пикселей
Соотношение сторон : 16:9
Режим частоты кадров : Постоянный
Частота кадров : 60,000 кадров/сек
Цветовое пространство : YUV
Субдискретизация насыщенности : 4:2:0
Битовая глубина : 8 бит
Тип развёртки : Прогрессивная
Бит/(Пиксели*Кадры) : 0.098
Размер потока : 3,54 Гбайт (93%)
Заголовок : slaventi-69 ( R.G. HD-Films | 60 fps )
Библиотека кодирования : x264 core 130 r2273 b3065e6
Настройки программы : cabac=1 / ref=9 / deblock=1:-1:-1 / analyse=0x3:0x133 / me=umh / subme=9 / psy=1 / psy_rd=1.00:0.00 / mixed_ref=1 / me_range=30 / chroma_me=1 / trellis=2 / 8x8dct=1 / cqm=0 / deadzone=21,11 / fast_pskip=0 / chroma_qp_offset=-2 / threads=10 / lookahead_threads=4 / sliced_threads=0 / nr=0 / decimate=1 / interlaced=0 / bluray_compat=0 / constrained_intra=0 / bframes=5 / b_pyramid=1 / b_adapt=2 / b_bias=0 / direct=2 / weightb=1 / open_gop=0 / weightp=2 / keyint=600 / keyint_min=60 / scenecut=40 / intra_refresh=0 / rc=crf / mbtree=0 / crf=18.0 / qcomp=0.60 / qpmin=0 / qpmax=69 / qpstep=4 / ip_ratio=1.40 / pb_ratio=1.30 / aq=1:1.00
Язык : English
Default : Да
Forced : Нет

Аудио
Идентификатор : 2
Формат : AC-3
Формат/Информация : Audio Coding 3
Коммерческое название : Dolby Digital
Идентификатор кодека : A_AC3
Продолжительность : 1 ч. 33 м.
Вид битрейта : Постоянный
Битрейт : 384 Кбит/сек
Каналы : 6 каналов
Channel layout : L R C LFE Ls Rs
Частота : 48,0 КГц
Частота кадров : 31,250 кадров/сек (1536 SPF)
Битовая глубина : 16 бит
Метод сжатия : С потерями
Размер потока : 257 Мбайт (7%)
Заголовок : MVO | Видеосервис
Язык : Russian
ServiceKind/String : Complete Main
Default : Да
Forced : Нет

Текст #1
Идентификатор : 3
Формат : UTF-8
Идентификатор кодека : S_TEXT/UTF8
Идентификатор кодека/Информация : UTF-8 Plain Text
Продолжительность : 1 ч. 28 м.
Битрейт : 43 бит/сек
ElementCount : 526
Размер потока : 28,1 Кбайт (0%)
Язык : Russian
Default : Нет
Forced : Нет

Текст #2
Идентификатор : 4
Формат : UTF-8
Идентификатор кодека : S_TEXT/UTF8
Идентификатор кодека/Информация : UTF-8 Plain Text
Продолжительность : 1 ч. 28 м.
Битрейт : 27 бит/сек
ElementCount : 588
Размер потока : 18,0 Кбайт (0%)
Язык : English
Default : Нет
Forced : Нет

Текст #3
Идентификатор : 5
Формат : UTF-8
Идентификатор кодека : S_TEXT/UTF8
Идентификатор кодека/Информация : UTF-8 Plain Text
Продолжительность : 1 ч. 28 м.
Битрейт : 29 бит/сек
ElementCount : 526
Размер потока : 19,0 Кбайт (0%)
Язык : Finnish
Default : Нет
Forced : Нет

Меню
00:00:00.000 : en:Chapter 1
00:08:33.584 : en:Chapter 2
00:14:39.783 : en:Chapter 3
00:22:01.391 : en:Chapter 4
00:23:59.842 : en:Chapter 5
00:28:33.783 : en:Chapter 6
00:31:34.630 : en:Chapter 7
00:37:22.811 : en:Chapter 8
00:39:47.122 : en:Chapter 9
00:46:19.848 : en:Chapter 10
00:47:57.695 : en:Chapter 11
00:50:07.158 : en:Chapter 12
00:51:06.217 : en:Chapter 13
00:54:03.561 : en:Chapter 14
00:55:16.801 : en:Chapter 15
00:56:27.204 : en:Chapter 16
01:01:53.364 : en:Chapter 17
01:03:44.308 : en:Chapter 18
01:09:45.168 : en:Chapter 19
01:11:28.438 : en:Chapter 20
01:13:23.386 : en:Chapter 21
01:13:57.253 : en:Chapter 22
01:17:04.440 : en:Chapter 23
01:17:54.324 : en:Chapter 24
01:20:01.784 : en:Chapter 25
01:22:24.427 : en:Chapter 26
01:25:53.969 : en:Chapter 27
01:28:53.983 : en:Chapter 28

Просьба к переливающим на другие сайты, в оформлении указывайте пожалуйста авторство группы R.G. HD-Films pb.wtf



Скачать Соло через торрент http://i6.imageban.ru/out/2018/06/17/671b4c82ad9497b83bbe182a4e76b854.png Скачать фильм Соло через торрент бесплантно в хорошем качестве Описание: Экранизация романа Роберта Мэйсона "Оружие". Он - универсальный солдат, способный сражаться и побеждать в любых условиях. У него ... 10 10 5
Info! Золотая раздача, скачанное не засчитывается.
Торрент: Зарегистрирован [2020-09-07 11:48] · скачан: 33 раз
Статус: √ проверено
Размер: 3.79 GB
Как cкачать? Как скачать Соло через торрент | UTorrent

% Раздел Тема Автор DL S | L
Фильмы (HD 720p, 1080p) (48-60 fps) [ 3.99 GB ] Соломон Кейн / Solomon Kane [2009 WEB-DLRip 720p / 60 FPS ] от R.G. HD-Films slaventi-69 Скачать
1 | 0

28-11-2019 20:33  

Отключить всю рекламу на сайте

07-09-2020 19:55 Соло Скачать торрент  

Отличный боевик!!! Жаль, что был недооценен в своё время. Нравится Марио... За данный релиз благодарю, забираю в коллекцию.pb.wtf



    Дорогой пользователь! Огромная просьба, поблагодарите релизера, оцените раздачу и оставьте свои комментарий, если Вы скачали Соло через торрент бесплатно! Внесите свою лепту в развитие PiratBit!
    Комментировать посты могут только пользователи прошедшие не сложную регистрацию
    Показать сообщения:    

    Соло через торрент
    Скачать бесплатно Соло
    Соло скачать торрент
    Соло смотреть онлайн
    Cкачать фильм Соло бесплатно
    Соло скачать торрент в хорошем качестве
    Соло смотреть онлайн бесплатно в хорошем качестве


    Вы не можете начинать темы
    Вы не можете отвечать на сообщения
    Вы не можете редактировать свои сообщения
    Вы не можете удалять свои сообщения
    Вы не можете голосовать в опросах
    Вы не можете прикреплять файлы к сообщениям
    Вы можете скачивать файлы