Ссылка на приватное зеркало нашего сайта всего за 1$. Внимание количество ограничено!!!

2 сезон

iTunes

1 сезон

1

iTunes

iTunes

iTunes

1 сезон

RePack

30

ИГРА 18+

pack

ВАЖНО

!!Акция!!

Alien_RageХит недели

RePack

MK11
pack

Забери бонус

RePack

jed

!!Акция!!

Alien_Rage

RePack

fifa19

RePack

Assassins Creed: Odyssey

RePack

NEED FOR SPEED™ PAYBACK

4 сезон

9 сезон

Бесстыжие 9 сезон

Все сериалы

все сериалы на PB.wtf

RePack

FAR CRY 5
  

Тонкие материи / Сезон: 1 / Серии: 1-8 из 8 (Анарио Мамедов) [2020, Мелодрама, HDTVRip 720p] pb.wtf

Тонкие материи через торрент pb.wtf

Размер: 9.94 GB | Добавлен: 1 мес. 17 д. назад | Торрент скачан:23 раза
Скачать  

07-09-2020 17:23 Тонкие материи Скачать торрент  

Тонкие материи
Год выпуска: 2020
Страна: Россия
Выпущено: КОСМОС студио
Жанр: Мелодрама
Продолжительность: ~ 00:43:00 серия
Перевод: Не требуется
Субтитры: отсутствуют

Режиссер: Анарио Мамедов



В ролях: Анастасия Талызина, Константин Белошапка, Софья Лебедева, Наталья Бергер, Артур Сопельник, Олег Алмазов, Антонина Паперная, Анна Большова, Кузьма Сапрыкин, Марина Гайзидорская, Алексей Сахаров (II), Софья Зайка, Ольга Хохлова, Кристина Исайкина, Сергей Шаталов, Михаил Хмуров

Описание: История разворачивается в 1962 году в 100-й секции универмага «Столица», которая очень избирательно распахивает свои двери. Например, человеку, побывавшему в космосе, разрешалось только разовое её посещение. К героям сериала, работающим в 100-й секции, каждый день приходят самые влиятельные люди страны в надежде стать самыми стильными влиятельными людьми страны. Иногда это даже получается. Один из таких клиентов — молодой и красивый племянник одного из высокопоставленных чиновников. Как устоять перед ним обычной девушке из провинции, только что устроившейся в 100-ю секцию?

Качество: HDTVRip 720p
Формат: AVI

Видео: MPEG-4 AVC, ~ 3500 Кбит/с, 1280x720, 25 fps
Аудио: AC3, 2 ch, 192 Кбит/с
скриншот  скриншот  скриншот  скриншот  

Общее
Уникальный идентификатор : 248489108725085933461921737756399589932 (0xBAF142F3F16479E9BB8C931463775A2C)
Полное имя : D:Tonkie materii.HDTVRip.(720p).GeneralFilm1.Tonkie materii.HDTVRip.(720p).GeneralFilm.mkv
Формат : Matroska
Версия формата : Version 2
Размер файла : 1,08 Гбайт
Продолжительность : 41 м.
Общий поток : 3694 Кбит/сек
Дата кодирования : UTC 2020-09-07 16:37:20
Программа кодирования : mkvmerge v7.8.0 ('River Man') 32bit built on Apr 3 2015 12:11:22
Библиотека кодирования : libebml v1.3.1 + libmatroska v1.4.2

Видео
Идентификатор : 1
Формат : AVC
Формат/Информация : Advanced Video Codec
Профиль формата : High@L4.1
Параметр CABAC формата : Да
Параметр ReFrames формата : 9 кадров
Идентификатор кодека : V_MPEG4/ISO/AVC
Продолжительность : 41 м.
Битрейт : 3500 Кбит/сек
Ширина : 1280 пикселей
Высота : 720 пикселей
Соотношение сторон : 16:9
Режим частоты кадров : Постоянный
Частота кадров : 25,000 кадров/сек
Цветовое пространство : YUV
Субдискретизация насыщенности : 4:2:0
Битовая глубина : 8 бит
Тип развёртки : Прогрессивная
Бит/(Пиксели*Кадры) : 0.152
Размер потока : 1,00 Гбайт (93%)
Библиотека кодирования : x264 core 146 r2538 121396c
Настройки программы : cabac=1 / ref=9 / deblock=1:-2:-1 / analyse=0x3:0x133 / me=umh / subme=9 / psy=1 / psy_rd=1.00:0.15 / mixed_ref=1 / me_range=32 / chroma_me=1 / trellis=2 / 8x8dct=1 / cqm=0 / deadzone=21,11 / fast_pskip=0 / chroma_qp_offset=-3 / threads=18 / lookahead_threads=3 / sliced_threads=0 / nr=0 / decimate=1 / interlaced=0 / bluray_compat=0 / constrained_intra=0 / bframes=9 / b_pyramid=2 / b_adapt=2 / b_bias=0 / direct=1 / weightb=1 / open_gop=0 / weightp=2 / keyint=250 / keyint_min=25 / scenecut=40 / intra_refresh=0 / rc=2pass / mbtree=0 / bitrate=3500 / ratetol=1.0 / qcomp=0.60 / qpmin=0 / qpmax=69 / qpstep=4 / cplxblur=20.0 / qblur=0.5 / ip_ratio=1.40 / pb_ratio=1.30 / aq=2:1.00
Default : Да
Forced : Нет
Основные цвета : BT.709
Характеристики трансфера : BT.709
Коэффициенты матрицы : BT.709

Аудио
Идентификатор : 2
Формат : AC-3
Формат/Информация : Audio Coding 3
Расширение режима : CM (complete main)
Параметр Endianness формата : Big
Идентификатор кодека : A_AC3
Продолжительность : 41 м.
Вид битрейта : Постоянный
Битрейт : 192 Кбит/сек
Каналы : 2 канала
Расположение каналов : Front: L R
Частота : 48,0 КГц
Битовая глубина : 16 бит
Метод сжатия : С потерями
Размер потока : 57,6 Мбайт (5%)
Default : Да
Forced : Нет

Внимание! Раздача ведётся путём добавления новых серий; при каждом добавлении создаётся новый торрент.
Чтобы начать докачку новой серии, пользователям необходимо сделать следующее:
1. Остановить скачивание;
2. Удалить старый торрент у себя из клиента (старые серии удалять не надо);
3. Скачать новый торрент и запустить его у себя в клиенте вместо старого, при этом указать клиенту путь в старую папку куда и должно происходить скачивание новых серий. Ваш клиент при этом должен произвести хеширование (проверку) старой папки и будет докачивать только те серии, которых у вас ещё нет. Старые серии при этом не удаляются, а продолжают раздаваться! Eсли вы уже удалили старые серии, то предотвратить повторную закачку старых серий можно, отжав галочку в соответствующих местах при запуске нового торрента.

pb.wtf



Скачать Тонкие материи через торрент http://c.radikal.ru/c11/2009/11/0a09abc11dcd.png Скачать фильм Тонкие материи через торрент бесплантно в хорошем качестве Описание: История разворачивается в 1962 году в 100-й секции универмага «Столица», которая очень избирательно распахивает свои двери. ... 9.3 10 3
Торрент: Зарегистрирован [2020-09-11 08:12] · скачан: 23 раз
Статус: √ проверено
Размер: 9.94 GB
Как cкачать? Как скачать Тонкие материи через торрент | qTorrent

% Раздел Тема Автор DL S | L
Наши сериалы [ 5.01 GB ] Тонкие материи / Сезон: 1 / Серии: 1-8 из 8 [2020 Мело SATRip] bober100 Скачать
2 | 0
Наши сериалы [ 5.9 GB ] Тонкие материи / Сезон: 1 / Серии: 1-8 из 8 [2020 Мело HDTVRip-AVC] bober100 Скачать
3 | 0
Наши сериалы [ 20.2 GB ] Тонкие материи / Сезон: 1 / Серии: 1-8 из 8 [2020 Мело HDTV 1080i] bober100 Скачать
2 | 0
Наши сериалы [ 4.85 GB ] Тонкие материи / Сезон: 1 / Серии: 1-8 из 8 [2020 Мело HDTVRip] bober100 Скачать
2 | 0

28-11-2019 20:33  

Отключить всю рекламу на сайте

    Дорогой пользователь! Огромная просьба, поблагодарите релизера, оцените раздачу и оставьте свои комментарий, если Вы скачали Тонкие материи через торрент бесплатно! Внесите свою лепту в развитие PiratBit!
    Комментировать посты могут только пользователи прошедшие не сложную регистрацию
    Показать сообщения:    

    Тонкие материи через торрент
    Скачать бесплатно Тонкие материи
    Тонкие материи скачать торрент
    Тонкие материи смотреть онлайн
    Cкачать фильм Тонкие материи бесплатно
    Тонкие материи скачать торрент в хорошем качестве
    Тонкие материи смотреть онлайн бесплатно в хорошем качестве


    Вы не можете начинать темы
    Вы не можете отвечать на сообщения
    Вы не можете редактировать свои сообщения
    Вы не можете удалять свои сообщения
    Вы не можете голосовать в опросах
    Вы не можете прикреплять файлы к сообщениям
    Вы можете скачивать файлы