Ссылка на приватное зеркало нашего сайта всего за 1$. Внимание количество ограничено!!!

2 сезон

iTunes

1 сезон

1

iTunes

iTunes

iTunes

1 сезон

RePack

30

ИГРА 18+

pack

ВАЖНО

!!Акция!!

Alien_RageХит недели

RePack

MK11
pack

Забери бонус

RePack

jed

!!Акция!!

Alien_Rage

RePack

fifa19

RePack

Assassins Creed: Odyssey

RePack

NEED FOR SPEED™ PAYBACK

4 сезон

9 сезон

Бесстыжие 9 сезон

Все сериалы

все сериалы на PB.wtf

RePack

FAR CRY 5
  

Z / Z (Брэндон Кристенсен) [2019, Ужасы, триллер, BDRip 1080p] DUB [iTunes] pb.wtf

Z через торрент pb.wtf

Раздают: 3 [ 0 KB/s ]
Размер: 7.43 GB | Добавлен: 1 мес. 13 д. назад | Торрент скачан:77 раз
Скачать  

07-09-2020 19:32 Z Скачать торрент  

Z | Z
Год выпуска: 2019
Страна: Канада
Студия: Digital Interference Productions, Hadron Films
Жанр: Ужасы, триллер
Продолжительность: 01:23:13
Перевод: Дублированный | iTunes
Субтитры: Английские

Режиссер: Брэндон Кристенсен

rating

В ролях: Киган Коннор Трейси, Джетт Клине, Шон Роджерсон, Сара Каннинг, Стивен МакХэтти, Чандра Уэст, Али Уэбб, Дебора Фергюсон, Кевин Доре, Фокс Роуз

Описание: Мать отказывается верить в Z, воображаемого друга своего 8-летнего сына, а внезапную агрессию ребенка забивает таблетками. Мальчик больше не видит Z. Теперь Z видит его мать. Может быть, Z хочет стать её другом?

Качество: BDRip 1080p
Формат: MKV

Видео: MPEG-4 AVC, 1920x816, 10.9 Mbit/s, 23.976 fps
Аудио #01: 48 kHz, AC3, 5.1, 384 Kbps | iTunes | RUS |
Аудио #02: 48 kHz, DTS, 5.1, 1510 Kbps | Оригинал | ENG |
скриншот  скриншот  скриншот  скриншот  скриншот  

General
Unique ID: 22952028352942193623902635818436225213 (0x1144665DCF812EBE9D6A1434386B68BD)
Complete name: D:\Video111\Z.2019.BDRip.1080p.seleZen.mkv
Format: Matroska
Format version: Version 4
File size: 7.43 GiB
Duration: 1 h 23 min
Overall bit rate: 12.8 Mb/s
Movie name: Z 2019 from селезень
Encoded date: UTC 2020-09-07 07:55:26
Writing application: mkvmerge v40.0.0 ('Old Town Road + Pony') 64-bit
Writing library: libebml v1.3.9 + libmatroska v1.5.2 / Lavf57.83.100
Cover: Yes
Attachments: cover.jpg

Video
ID: 1
Format: AVC
Format/Info: Advanced Video Codec
Format profile: High@L4.1
Format settings: CABAC / 5 Ref Frames
Format settings, CABAC: Yes
Format settings, Reference: 5 frames
Codec ID: V_MPEG4/ISO/AVC
Duration: 1 h 23 min
Bit rate: 10.9 Mb/s
Width: 1 920 pixels
Height: 816 pixels
Display aspect ratio: 2.35:1
Frame rate mode: Constant
Frame rate: 23.976 (24000/1001) FPS
Color space: YUV
Chroma subsampling: 4:2:0
Bit depth: 8 bits
Scan type: Progressive
Bits/(Pixel*Frame): 0.290
Stream size: 6.33 GiB (85%)
Writing library: x264 core 146 r2538 121396c
Encoding settings: cabac=1 / ref=5 / deblock=1:-2:-2 / analyse=0x3:0x133 / me=umh / subme=10 / psy=1 / psy_rd=1.00:0.00 / mixed_ref=1 / me_range=32 / chroma_me=1 / trellis=2 / 8x8dct=1 / cqm=0 / deadzone=21,11 / fast_pskip=0 / chroma_qp_offset=-2 / threads=6 / lookahead_threads=1 / sliced_threads=0 / nr=0 / decimate=0 / interlaced=0 / bluray_compat=0 / constrained_intra=0 / bframes=8 / b_pyramid=2 / b_adapt=2 / b_bias=0 / direct=3 / weightb=1 / open_gop=0 / weightp=2 / keyint=240 / keyint_min=23 / scenecut=40 / intra_refresh=0 / rc_lookahead=50 / rc=2pass / mbtree=0 / bitrate=10888 / ratetol=1.0 / qcomp=0.60 / qpmin=0 / qpmax=51 / qpstep=4 / cplxblur=20.0 / qblur=0.5 / vbv_maxrate=50000 / vbv_bufsize=62500 / nal_hrd=none / filler=0 / ip_ratio=1.40 / pb_ratio=1.30 / aq=1:0.80
Language: English
Default: Yes
Forced: No

Audio #1
ID: 2
Format: AC-3
Format/Info: Audio Coding 3
Commercial name: Dolby Digital
Codec ID: A_AC3
Duration: 1 h 23 min
Bit rate mode: Constant
Bit rate: 384 kb/s
Channel(s): 6 channels
Channel layout: L R C LFE Ls Rs
Sampling rate: 48.0 kHz
Frame rate: 31.250 FPS (1536 SPF)
Compression mode: Lossy
Stream size: 228 MiB (3%)
Title: iTunes
Language: Russian
Service kind: Complete Main
Default: Yes
Forced: Yes

Audio #2
ID: 3
Format: DTS
Format/Info: Digital Theater Systems
Codec ID: A_DTS
Duration: 1 h 23 min
Bit rate mode: Constant
Bit rate: 1 509 kb/s
Channel(s): 6 channels
Channel layout: C L R Ls Rs LFE
Sampling rate: 48.0 kHz
Frame rate: 93.750 FPS (512 SPF)
Bit depth: 24 bits
Compression mode: Lossy
Stream size: 898 MiB (12%)
Title: Original
Language: English
Default: No
Forced: No

Text
ID: 4
Format: UTF-8
Codec ID: S_TEXT/UTF8
Codec ID/Info: UTF-8 Plain Text
Duration: 1 h 18 min
Bit rate: 32 b/s
Count of elements: 806
Stream size: 18.7 KiB (0%)
Title: SDH
Language: English
Default: No
Forced: No

Menu
00:00:00.000: en:Chapter 01
00:13:24.637: en:Chapter 02
00:24:32.763: en:Chapter 03
00:36:11.753: en:Chapter 04
00:50:39.703: en:Chapter 05
01:00:55.861: en:Chapter 06
01:13:23.774: en:Chapter 07
01:20:03.090: en:Chapter 08

pb.wtf



Скачать Z через торрент https://i111.fastpic.ru/big/2020/0413/2d/c0aa810c3296a145478aaa8e1ea5d32d.jpg Скачать фильм Z через торрент бесплантно в хорошем качестве Описание: Мать отказывается верить в Z, воображаемого друга своего 8-летнего сына, а внезапную агрессию ребенка забивает таблетками. ... 10 10 5
Торрент: Зарегистрирован [2020-09-07 19:32] · скачан: 77 раз
Статус: √ проверено
Размер: 7.43 GB
Как cкачать? Как скачать Z через торрент | qTorrent

% Раздел Тема Автор DL S | L
S.T.A.L.K.E.R. [ 2.96 GB ] S.T.A.L.K.E.R.: Clear Sky/С.Т.А.Л.К.Е.Р.: Чистое небо + Мод: Ветер перемен URII GERASIMOV Скачать
1 | 1
Фильмы (DVD фильмы) [ 4.04 GB ] Бегущий по лезвию бритвы / BLADE RUNNER ) [1992 Киберпанк DVD5] paul08 Скачать
1 | 0
Архив (Операционные системы от Microsoft) [ 2.54 GB ] Windows 7 7106 X86 RU BLACK EDITION Ultimate paul08 Скачать
1 | 0
Фильмы (WEB-DL 720p, 1080p) [ 8.55 GB ] Троя - Режиссёрская версия / Troy - Director's Cut [2004 история HDTV] L_E_X Скачать
1 | 0
Иностранные мультфильмы [ 1.37 GB ] Король-лев 2: Гордость Симбы / The Lion King II: Simba's Pride [1998 мюзикл мультфильм DVDRip] Anonymous Скачать
1 | 1
S.T.A.L.K.E.R. [ 4.37 GB ] S.T.A.L.K.E.R. ЗОВ ПРИПЯТИ [лицензия RU GSC] DEVI Скачать
1 | 0
Архив (Программы для работы с мультимедиа и 3D) [ 323 MB ] Sony Vegas PRO 9.0.563 RUS DEVI Скачать
1 | 0

28-11-2019 20:33  

Отключить всю рекламу на сайте

    Дорогой пользователь! Огромная просьба, поблагодарите релизера, оцените раздачу и оставьте свои комментарий, если Вы скачали Z через торрент бесплатно! Внесите свою лепту в развитие PiratBit!
    Комментировать посты могут только пользователи прошедшие не сложную регистрацию
    Показать сообщения:    

    Z через торрент
    Скачать бесплатно Z
    Z скачать торрент
    Z смотреть онлайн
    Cкачать фильм Z бесплатно
    Z скачать торрент в хорошем качестве
    Z смотреть онлайн бесплатно в хорошем качестве


    Вы не можете начинать темы
    Вы не можете отвечать на сообщения
    Вы не можете редактировать свои сообщения
    Вы не можете удалять свои сообщения
    Вы не можете голосовать в опросах
    Вы не можете прикреплять файлы к сообщениям
    Вы можете скачивать файлы