2 сезон

iTunes

MVO

1

2 сезон

iTunes

iTunes

1 сезон

RePack

30

Новинка

ВАЖНО

ИГРА 18+

pack

RePack

MK11
pack

Легкие деньги

RePack

jed

RePack

fifa19

RePack

RDR2

RePack

NEED FOR SPEED™ PAYBACK

4 сезон

9 сезон

Бесстыжие 9 сезон

Все сериалы

все сериалы на PB.wtf

RePack

FAR CRY 5

Anonymous, доброй ночи, мы не успеваем собрать деньги на оплату серверов за декабрь и январь, помогите нам пожалуйста в это трудное время. В качестве благодарности мы отключим Вам всю рекламу на сайте (укажите свой ник в строку Ваше имя)!

×
  
Magnet ссылка

Йеллоустоун / Yellowstone / Сезон: 1 / Серии: 1-9 из 9 (Тейлор Шеридан) [2018, драма, вестерн, HDRip-AVC] [DVO] (Кубик в Кубе) pb.wtf

Йеллоустоун через торрент pb.wtf

Раздают: 1 [ 0 KB/s ]
Размер: 11.86 GB | Добавлен: 4 мес. 7 д. назад | Торрент скачан:20 раз
Скачать  

08-09-2020 06:42 Йеллоустоун Скачать торрент  

Йеллоустоун / Yellowstone Год выпуска: 2018
Страна: США
Жанр: драма, вестерн
Продолжительность: ~00:48:00
Перевод: Профессиональный (двухголосый закадровый), Кубик в Кубе | НЕНОРМАТИВНАЯ ЛЕКСИКА
Субтитры: Английские

Режиссёр: Тейлор Шеридан / Taylor Sheridan

В ролях: Кевин Костнер /Kevin Costner/, Люк Граймс /Luke Grimes/, Келли Райлли /Kelly Reilly/, Уэс Бентли /Wes Bentley/, Коул Хаузер /Cole Hauser/, Келси Эсбиль /Kelsey Asbille/

Описание: Йеллоустоун – первый в мире национальный парк, одно из самых посещаемых мест в США. Но здесь, на границе цивилизации, происходит много такого, чего не видят туристы, что не освещается средствами массовой информации. Семья Даттон, главой которой является Джон Даттон, владеет огромным ранчо, сопредельным с территорией парка. На их землю претендует и сам парк, и индейская резервация, и жадные застройщики.


Исходник: Yellowstone.US.S01.1080p.BluRay.x264-ROVERS
Качество: HDRip-AVC
Формат: MKV
Видео: MPEG-4 AVC, 1152x576 (16:9), 23,976 fps, 3000 kbps
Аудио 1: AC3, stereo, 192 kbps, 48 kHz (Кубик в Кубе)
Аудио 2: AC3, DD 5.1, 448 kbps, 48 kHz (Оригинальная англоязычная озвучка)
Субтитры: Английские (полные)

Скачать: SAMPLE 32.30MB
01. Рассвет / Daybreak
02. Убить гонца / Kill the Messenger
03. Плохие лошади / No Good Horses
04. Длинный чёрный поезд / The Long Black Train
05. Домой / Coming Home
06. Воспоминания / The Remembering
07. Чудовище среди нас / A Monster Is Among Us
08. Развязка, часть первая / The Unravelling: Part 1
09. Развязка, часть вторая / The Unravelling: Part 2
Формат : Matroska
Версия формата : Version 4
Размер файла : 2,35 Гбайт
Продолжительность : 1 ч. 32 м.
Общий поток : 3642 Кбит/сек
Дата кодирования : UTC 2020-09-06 19:24:57
Программа кодирования : mkvmerge v8.3.0 ('Over the Horizon') 64bit
Библиотека кодирования : libebml v1.3.1 + libmatroska v1.4.2

Видео
Идентификатор : 1
Формат : AVC
Формат/Информация : Advanced Video Codec
Профиль формата : High@L4.1
Настройки формата : CABAC / 10 Ref Frames
Параметр CABAC формата : Да
Параметр RefFrames формата : 10 кадров
Идентификатор кодека : V_MPEG4/ISO/AVC
Продолжительность : 1 ч. 32 м.
Битрейт : 3000 Кбит/сек
Ширина : 1152 пикселя
Высота : 576 пикселей
Соотношение сторон : 2,000
Режим частоты кадров : Постоянный
Частота кадров : 23,976 (24000/1001) кадра/сек
Цветовое пространство : YUV
Субдискретизация насыщенности : 4:2:0
Битовая глубина : 8 бит
Тип развёртки : Прогрессивная
Бит/(Пиксели*Кадры) : 0.189
Размер потока : 1,94 Гбайт (82%)
Библиотека кодирования : x264 core 152 r2851 ba24899
Настройки программы : cabac=1 / ref=10 / deblock=1:-2:-1 / analyse=0x3:0x133 / me=umh / subme=10 / psy=1 / psy_rd=0.95:0.05 / mixed_ref=1 / me_range=32 / chroma_me=1 / trellis=2 / 8x8dct=1 / cqm=0 / deadzone=21,11 / fast_pskip=0 / chroma_qp_offset=-3 / threads=3 / lookahead_threads=1 / sliced_threads=0 / nr=0 / decimate=1 / interlaced=0 / bluray_compat=0 / constrained_intra=0 / bframes=9 / b_pyramid=2 / b_adapt=2 / b_bias=0 / direct=3 / weightb=1 / open_gop=0 / weightp=2 / keyint=240 / keyint_min=23 / scenecut=40 / intra_refresh=0 / rc_lookahead=80 / rc=2pass / mbtree=1 / bitrate=3000 / ratetol=1.0 / qcomp=0.60 / qpmin=10 / qpmax=51 / qpstep=4 / cplxblur=20.0 / qblur=0.5 / ip_ratio=1.40 / aq=1:1.00
Язык : English
Default : Да
Forced : Нет

Аудио #1
Идентификатор : 2
Формат : AC-3
Формат/Информация : Audio Coding 3
Коммерческое название : Dolby Digital
Идентификатор кодека : A_AC3
Продолжительность : 1 ч. 32 м.
Вид битрейта : Постоянный
Битрейт : 192 Кбит/сек
Каналы : 2 канала
Channel layout : L R
Частота : 48,0 КГц
Частота кадров : 31,250 кадров/сек (1536 SPF)
Битовая глубина : 16 бит
Метод сжатия : С потерями
Размер потока : 127 Мбайт (5%)
Заголовок : Кубик в Кубе
Язык : Russian
ServiceKind/String : Complete Main
Default : Да
Forced : Нет

Аудио #2
Идентификатор : 3
Формат : AC-3
Формат/Информация : Audio Coding 3
Коммерческое название : Dolby Digital
Идентификатор кодека : A_AC3
Продолжительность : 1 ч. 32 м.
Вид битрейта : Постоянный
Битрейт : 448 Кбит/сек
Каналы : 6 каналов
Channel layout : L R C LFE Ls Rs
Частота : 48,0 КГц
Частота кадров : 31,250 кадров/сек (1536 SPF)
Битовая глубина : 16 бит
Метод сжатия : С потерями
Размер потока : 296 Мбайт (12%)
Заголовок : Оригинальная дорожка
Язык : English
ServiceKind/String : Complete Main
Default : Нет
Forced : Нет

Текст
Идентификатор : 4
Формат : UTF-8
Идентификатор кодека : S_TEXT/UTF8
Идентификатор кодека/Информация : UTF-8 Plain Text
Продолжительность : 1 ч. 32 м.
Битрейт : 54 бит/сек
ElementCount : 1207
Размер потока : 36,9 Кбайт (0%)
Язык : English
Default : Нет
Forced : Нет
скриншот  скриншот  скриншот  
pb.wtf



Скачать Йеллоустоун через торрент https://c.radikal.ru/c08/2009/b3/18d35589548d.png Скачать фильм Йеллоустоун через торрент бесплантно в хорошем качестве Описание: Йеллоустоун – первый в мире национальный парк, одно из самых посещаемых мест в США. Но здесь, на границе цивилизации, происходит ... 10 10 1
Торрент: Зарегистрирован [2020-09-08 06:42] · скачан: 20 раз
Статус: √ проверено
Размер: 11.86 GB
Как cкачать? Как скачать Йеллоустоун через торрент | UTorrent

% Раздел Тема Автор DL S | L
Зарубежные сериалы [ 33.35 GB ] Йеллоустоун / Yellowstone / Сезон: 1 / Серии: 1-9 из 9 [2018 WEBRip 1080p] [MVO] killermax2013 Скачать
1 | 0
Зарубежные сериалы [ 10.67 GB ] Йеллоустоун / Yellowstone / Сезон: 1 / Серии: 1-9 из 9 [2018 WEB-DL 720p] MVO [NewStudio] bober100 Скачать
1 | 0
Зарубежные сериалы [ 9 GB ] Йеллоустоун / Yellowstone / Сезон: 1 / Серии: 1-9 из 9 [2018 WEBRip 720p] MVO [LostFilm] bober100 Скачать
1 | 0
Зарубежные сериалы [ 21.19 GB ] Йеллоустоун / Yellowstone / Сезон: 1 / Серии: 1-9 из 9 [2018 BDRip 1080p] MVO [LostFilm] bober100 Скачать
2 | 0
Зарубежные сериалы [ 24.44 GB ] Йеллоустоун / Yellowstone / Сезон: 1 / Серии: 1-9 из 9 [2018 WEBRip 1080p] MVO [TVShows] bober100 Скачать
1 | 0
Зарубежные сериалы [ 7.19 GB ] Йеллоустоун / Yellowstone / Сезон: 1 / Серии: 1-9 из 9 [2018 WEBRip] MVO [TVShows] bober100 Скачать
1 | 0

28-11-2019 20:33  

Отключить всю рекламу на сайте

    Дорогой пользователь! Огромная просьба, поблагодарите релизера, оцените раздачу и оставьте свои комментарий, если Вы скачали Йеллоустоун через торрент бесплатно! Внесите свою лепту в развитие PiratBit!
    Комментировать посты могут только пользователи прошедшие не сложную регистрацию
    Показать сообщения:    

    Йеллоустоун через торрент
    Скачать бесплатно Йеллоустоун
    Йеллоустоун скачать торрент
    Йеллоустоун смотреть онлайн
    Cкачать фильм Йеллоустоун бесплатно
    Йеллоустоун скачать торрент в хорошем качестве
    Йеллоустоун смотреть онлайн бесплатно в хорошем качестве


    Вы не можете начинать темы
    Вы не можете отвечать на сообщения
    Вы не можете редактировать свои сообщения
    Вы не можете удалять свои сообщения
    Вы не можете голосовать в опросах
    Вы не можете прикреплять файлы к сообщениям
    Вы можете скачивать файлы