Ссылка на приватное зеркало нашего сайта всего за 1$. Внимание количество ограничено!!!

2 сезон

iTunes

1 сезон

1

2 сезон

2 сезон

iTunes

1 сезон

RePack

30

Новинка

ВАЖНО

ИГРА 18+

pack

RePack

MK11
pack

Забери бонус

RePack

jed

!!Акция!!

Alien_Rage

RePack

fifa19

RePack

Assassins Creed: Odyssey

RePack

NEED FOR SPEED™ PAYBACK

4 сезон

9 сезон

Бесстыжие 9 сезон

Все сериалы

все сериалы на PB.wtf

RePack

FAR CRY 5
  

Сказки с тёмной стороны / Tales from the Darkside: The Movie (Джон Харрисон) [1990, ужасы, фэнтези, комедия, BDRemux 1080р] [DUB+DVO+5xAVO] pb.wtf

Сказки с тёмной стороны через торрент pb.wtf

Размер: 25.47 GB | Добавлен: 2 мес. 23 д. назад | Торрент скачан:12 раз
Скачать  

08-09-2020 06:53 Сказки с тёмной стороны Скачать торрент  

Сказки с тёмной стороны / Tales from the Darkside: The Movie

Год выхода: 1990
Жанр: ужасы, фэнтези, комедия
Страна: США
Продолжительность: 01:33:24
Перевод 1: профессиональный (многоголосый закадровый) ТВ3
Перевод 2: профессиональный (двухголосый закадровый) РТР
Перевод 3: авторский (одноголосый закадровый) Вартан Дохалов
Перевод 4: авторский (одноголосый закадровый) Юрий Сербин
Перевод 5: авторский (одноголосый закадровый) Сергей Кузнецов
Перевод 6: авторский (одноголосый закадровый) Алексей Матвеев
Перевод 7: авторский (одноголосый закадровый) Михаил Иванов
Оригинальная аудиодорожка: английский
Субтитры: Английские

Режиссер: Джон Харрисон

В ролях: Дебора Харри, Кристиан Слэйтер, Стив Бушеми, Дэвид Форрестер, Мэттью Лоуренс, Роберт Седжвик, Дональд Ван Хорн, Майкл Дик, Джулианна Мур, Кэтлин Чэлфант, Ральф Марреро, Дэвид Джохансен, Пол Грино, Уильям Хикки, Элис Драммонд, Долорес Саттон, Марк Марголис, Джеймс Римар, Эштон Уайз, Филип Ленковски, Роберт Клейн, Рей Дон Чон, Ларри Сильвестри, Донна Дэвидж, Николь Лич, Дэниэл Харрисон

Описание: Пытаясь выиграть время, мальчик рассказывает страшные истории ведьме, которая собирается его съесть.



Качество: BDRemux 1080р
Формат: MKV
Видео: MPEG-4 AVC, 35 Мбит/с, 1920x1080, 23.976 fps
Аудио 1: Russian; AC3; 48.0 KHz; 2ch; 192 Kbps | ТВ3
Аудио 2: Russian; AC3; 48.0 KHz; 2ch; 192 Kbps | РТР
Аудио 3: Russian; AC3; 48.0 KHz; 2ch; 192 Kbps | Вартан Дохалов
Аудио 4: Russian; AC3; 48.0 KHz; 2ch; 192 Kbps | Юрий Сербин
Аудио 5: Russian; AC3; 48.0 KHz; 2ch; 192 Kbps | Сергей Кузнецов
Аудио 6: Russian; AC3; 48.0 KHz; 6ch; 384 Kbps | Алексей Матвеев
Аудио 7: Russian; AC3; 48.0 KHz; 2ch; 192 Kbps | Михаил Иванов
скриншот  скриншот  скриншот  
General

Unique ID : 230929502729179160869934463699405800072 (0xADBB67890AF87E97860DF5E6B0088288)

Complete name : D:REMUXTales.from.the.Darkside.The.Movie.1990.BD-Remux.1080p.mkv

Format : Matroska

Format version : Version 4 / Version 2

File size : 25.5 GiB

Duration : 1h 33mn

Overall bit rate mode : Variable

Overall bit rate : 39.1 Mbps

Encoded date : UTC 2020-08-25 14:54:20

Writing application : mkvmerge v6.1.0 ('Old Devil') built on Mar 2 2013 14:32:37

Writing library : libebml v1.3.0 + libmatroska v1.4.0

Video

ID : 1

Format : AVC

Format/Info : Advanced Video Codec

Format profile : High@L4.1

Format settings, CABAC : Yes

Format settings, ReFrames : 4 frames

Codec ID : V_MPEG4/ISO/AVC

Duration : 1h 33mn

Bit rate mode : Constant

Bit rate : 35.0 Mbps

Width : 1 920 pixels

Height : 1 080 pixels

Display aspect ratio : 16:9

Frame rate : 23.976 fps

Color space : YUV

Chroma subsampling : 4:2:0

Bit depth : 8 bits

Scan type : Progressive

Bits/(Pixel*Frame) : 0.704

Stream size : 22.9 GiB (90%)

Language : English

Default : Yes

Forced : No

Audio #1

ID : 2

Format : AC-3

Format/Info : Audio Coding 3

Mode extension : CM (complete main)

Codec ID : A_AC3

Duration : 1h 33mn

Bit rate mode : Constant

Bit rate : 192 Kbps

Channel(s) : 2 channels

Channel positions : Front: L R

Sampling rate : 48.0 KHz

Bit depth : 16 bits

Compression mode : Lossy

Stream size : 128 MiB (0%)

Title : MVO ( ТВ3 )

Language : Russian

Default : Yes

Forced : No

Audio #2

ID : 3

Format : AC-3

Format/Info : Audio Coding 3

Mode extension : CM (complete main)

Codec ID : A_AC3

Duration : 1h 33mn

Bit rate mode : Constant

Bit rate : 192 Kbps

Channel(s) : 2 channels

Channel positions : Front: L R

Sampling rate : 48.0 KHz

Bit depth : 16 bits

Compression mode : Lossy

Stream size : 128 MiB (0%)

Title : DVO ( PTP )

Language : Russian

Default : No

Forced : No

Audio #3

ID : 4

Format : AC-3

Format/Info : Audio Coding 3

Mode extension : CM (complete main)

Codec ID : A_AC3

Duration : 1h 33mn

Bit rate mode : Constant

Bit rate : 192 Kbps

Channel(s) : 2 channels

Channel positions : Front: L R

Sampling rate : 48.0 KHz

Bit depth : 16 bits

Compression mode : Lossy

Stream size : 128 MiB (0%)

Title : AVO ( Вартан Дохалов )

Language : Russian

Default : No

Forced : No

Audio #4

ID : 5

Format : AC-3

Format/Info : Audio Coding 3

Mode extension : CM (complete main)

Codec ID : A_AC3

Duration : 1h 33mn

Bit rate mode : Constant

Bit rate : 192 Kbps

Channel(s) : 2 channels

Channel positions : Front: L R

Sampling rate : 48.0 KHz

Bit depth : 16 bits

Compression mode : Lossy

Stream size : 128 MiB (0%)

Title : AVO ( Юрий Сербин )

Language : Russian

Default : No

Forced : No

Audio #5

ID : 6

Format : AC-3

Format/Info : Audio Coding 3

Mode extension : CM (complete main)

Codec ID : A_AC3

Duration : 1h 33mn

Bit rate mode : Constant

Bit rate : 192 Kbps

Channel(s) : 2 channels

Channel positions : Front: L R

Sampling rate : 48.0 KHz

Bit depth : 16 bits

Compression mode : Lossy

Stream size : 128 MiB (0%)

Title : AVO ( Сергей Кузнецов )

Language : Russian

Default : No

Forced : No

Audio #6

ID : 7

Format : AC-3

Format/Info : Audio Coding 3

Mode extension : CM (complete main)

Codec ID : A_AC3

Duration : 1h 33mn

Bit rate mode : Constant

Bit rate : 384 Kbps

Channel(s) : 6 channels

Channel positions : Front: L C R, Side: L R, LFE

Sampling rate : 48.0 KHz

Bit depth : 16 bits

Compression mode : Lossy

Stream size : 256 MiB (1%)

Title : AVO Алексей ( "Doctor Joker" Матвеев )

Language : Russian

Default : No

Forced : No

Audio #7

ID : 8

Format : AC-3

Format/Info : Audio Coding 3

Mode extension : CM (complete main)

Codec ID : A_AC3

Duration : 1h 33mn

Bit rate mode : Constant

Bit rate : 192 Kbps

Channel(s) : 2 channels

Channel positions : Front: L R

Sampling rate : 48.0 KHz

Bit depth : 16 bits

Compression mode : Lossy

Stream size : 128 MiB (0%)

Title : AVO ( Михаил Иванов )

Language : Russian

Default : No

Forced : No

Audio #8

ID : 9

Format : DTS

Format/Info : Digital Theater Systems

Format profile : MA / Core

Codec ID : A_DTS

Duration : 1h 33mn

Bit rate mode : Variable

Bit rate : 1 561 Kbps / 1 510 Kbps

Channel(s) : 6 channels

Channel positions : Front: L C R, Side: L R, LFE

Sampling rate : 48.0 KHz

Bit depth : 24 bits

Compression mode : Lossless / Lossy

Language : English

Default : No

Forced : No

Text #1

ID : 10

Format : UTF-8

Codec ID : S_TEXT/UTF8

Codec ID/Info : UTF-8 Plain Text

Title : Full

Language : English

Default : No

Forced : No

Text #2

ID : 11

Format : UTF-8

Codec ID : S_TEXT/UTF8

Codec ID/Info : UTF-8 Plain Text

Title : SDH

Language : English

Default : No

Forced : No

Menu

00:00:00.000 : en:Chapter 01

00:06:29.889 : en:Chapter 02

00:17:00.269 : en:Chapter 03

00:26:11.487 : en:Chapter 04

00:34:54.551 : en:Chapter 05

00:44:45.725 : en:Chapter 06

00:51:15.656 : en:Chapter 07

00:58:41.560 : en:Chapter 08

01:07:06.439 : en:Chapter 09

01:15:40.286 : en:Chapter 10

01:22:17.891 : en:Chapter 11

01:30:04.691 : en:Chapter 12
pb.wtf



Скачать Сказки с тёмной стороны через торрент https://i3.imageban.ru/out/2020/09/07/848eea0ffb850f94429103a17a806ccd.jpg Скачать фильм Сказки с тёмной стороны через торрент бесплантно в хорошем качестве Описание: Пытаясь выиграть время, мальчик рассказывает страшные истории ведьме, которая собирается его ... 10 10 1
Торрент: Зарегистрирован [2020-09-08 06:53] · скачан: 12 раз
Статус: √ проверено
Размер: 25.47 GB
Как cкачать? Как скачать Сказки с тёмной стороны через торрент | qTorrent

% Раздел Тема Автор DL S | L
Фильмы до 2000 г. [ 699 MB ] Стивен Кинг: Сказки с темной стороны / Tales from the Darkside: The Movie [1990 DVDRip] Trust Скачать
1 | 0

28-11-2019 20:33  

Отключить всю рекламу на сайте

    Дорогой пользователь! Огромная просьба, поблагодарите релизера, оцените раздачу и оставьте свои комментарий, если Вы скачали Сказки с тёмной стороны через торрент бесплатно! Внесите свою лепту в развитие PiratBit!
    Комментировать посты могут только пользователи прошедшие не сложную регистрацию
    Показать сообщения:    

    Сказки с тёмной стороны через торрент
    Скачать бесплатно Сказки с тёмной стороны
    Сказки с тёмной стороны скачать торрент
    Сказки с тёмной стороны смотреть онлайн
    Cкачать фильм Сказки с тёмной стороны бесплатно
    Сказки с тёмной стороны скачать торрент в хорошем качестве
    Сказки с тёмной стороны смотреть онлайн бесплатно в хорошем качестве


    Вы не можете начинать темы
    Вы не можете отвечать на сообщения
    Вы не можете редактировать свои сообщения
    Вы не можете удалять свои сообщения
    Вы не можете голосовать в опросах
    Вы не можете прикреплять файлы к сообщениям
    Вы можете скачивать файлы