Ссылка на приватное зеркало нашего сайта всего за 1$. Внимание количество ограничено!!!

2 сезон

iTunes

1 сезон

1

iTunes

iTunes

iTunes

1 сезон

RePack

30

ИГРА 18+

pack

ВАЖНО

!!Акция!!

Alien_RageХит недели

RePack

MK11
pack

Забери бонус

RePack

jed

!!Акция!!

Alien_Rage

RePack

fifa19

RePack

Assassins Creed: Odyssey

RePack

NEED FOR SPEED™ PAYBACK

4 сезон

9 сезон

Бесстыжие 9 сезон

Все сериалы

все сериалы на PB.wtf

RePack

FAR CRY 5
  

Мисс Плохое поведение / Misbehaviour (Филиппа Лоуторп) [2020, Комедия, драма, история, BDRip 1080p] DUB [iTunes] +MVO [HDRezka Studio] pb.wtf

Мисс Плохое поведение через торрент pb.wtf

Раздают: 5 [ 537 KB/s ]
Размер: 11.21 GB | Добавлен: 1 мес. 16 д. назад | Торрент скачан:50 раз
Скачать  

08-09-2020 20:20 Мисс Плохое поведение Скачать торрент  

Мисс Плохое поведение | Misbehaviour
Год выпуска: 2020
Страна: Великобритания, Франция
Студия: Pathé, BBC Films, British Film Institute
Жанр: Комедия, драма, история
Продолжительность: 01:46:15
Перевод:
#1: Дублированный | iTunes
#2: Профессиональный многоголосый | HDRezka Studio
Субтитры: Английские

Режиссер: Филиппа Лоуторп

rating

В ролях: Кира Найтли, Джесси Бакли, Кили Хоуз, Гугу Мбата-Роу, Сьюки Уотерхаус, Грег Кинниэр, Рис Иванс, Шарлотта Спенсер, Филлис Логан, Лесли Мэнвилл

Описание: Англия, 1970-е, эпоха сексуальной революции и поисков новой свободы. Миллионы восторженных зрителей, вспышки фотокамер, шикарные наряды и секси-купальники — на лондонский подиум выходят топ-модели со всего света. И тут в сияющий огнями Альберт-холл врывается группа девушек.

Качество: BDRip 1080p
Формат: MKV

Видео: MPEG-4 AVC, 1920x804, 13.7 Mbit/s, 24.000 fps
Аудио #01: 48 kHz, AC3, 5.1, 384 Kbps | iTunes | RUS |
Аудио #02: 48 kHz, AC3, 5.1, 384 Kbps | HDRezka Studio | RUS |
Аудио #03: 48 kHz, AC3, 5.1, 640 Kbps | Оригинал | ENG |
скриншот  скриншот  скриншот  скриншот  скриншот  

General
Unique ID : 310195807031204365843280065957979660853 (0xE95D8A12161C65775DE92B62077AA235)
Complete name : D:Video111Misbehaviour.2020.BDRip.1080p.seleZen.mkv
Format : Matroska
Format version : Version 4
File size : 11.2 GiB
Duration : 1 h 46 min
Overall bit rate : 15.1 Mb/s
Movie name : Misbehaviour 2020 from селезень
Encoded date : UTC 2020-09-08 08:12:23
Writing application : mkvmerge v40.0.0 ('Old Town Road + Pony') 64-bit
Writing library : libebml v1.3.9 + libmatroska v1.5.2

Video
ID : 1
Format : AVC
Format/Info : Advanced Video Codec
Format profile : High@L4.1
Format settings : CABAC / 5 Ref Frames
Format settings, CABAC : Yes
Format settings, Reference : 5 frames
Codec ID : V_MPEG4/ISO/AVC
Duration : 1 h 46 min
Bit rate : 13.7 Mb/s
Width : 1 920 pixels
Height : 804 pixels
Display aspect ratio : 2.40:1
Frame rate mode : Constant
Frame rate : 24.000 FPS
Color space : YUV
Chroma subsampling : 4:2:0
Bit depth : 8 bits
Scan type : Progressive
Bits/(Pixel*Frame) : 0.370
Stream size : 10.2 GiB (91%)
Title : iFT
Writing library : x264 core 161 r3018+53 ~ Encoded by Mocunaman in Portugal
Encoding settings : cabac=1 / ref=5 / deblock=1:-3:-3 / analyse=0x3:0x113 / me=umh / subme=10 / psy=1 / fade_compensate=0.00 / psy_rd=1.00:0.00 / mixed_ref=1 / me_range=32 / chroma_me=1 / trellis=2 / 8x8dct=1 / cqm=0 / deadzone=21,11 / fast_pskip=0 / chroma_qp_offset=-2 / threads=25 / lookahead_threads=6 / sliced_threads=0 / nr=0 / decimate=0 / interlaced=0 / bluray_compat=0 / constrained_intra=0 / fgo=0 / bframes=12 / b_pyramid=2 / b_adapt=2 / b_bias=0 / direct=3 / weightb=1 / open_gop=0 / weightp=2 / keyint=250 / keyint_min=24 / scenecut=40 / intra_refresh=0 / rc_lookahead=60 / rc=crf / mbtree=0 / crf=16.8000 / qcomp=0.60 / qpmin=0:0:0 / qpmax=69:69:69 / qpstep=4 / vbv_maxrate=62500 / vbv_bufsize=78125 / crf_max=0.0 / nal_hrd=none / filler=0 / ip_ratio=1.30 / pb_ratio=1.20 / aq=3:0.80 / aq-sensitivity=10.00 / aq-factor=1.00:1.00:1.00 / aq2=0 / aq3=0 / zones=0,4416,crf=16.3/5004,7696,crf=16.3/8511,8934,crf=16.3/37501,38053,crf=15.8/55654,58868,crf=15.8/80422,90142,crf=16.3/90926,94402,crf=16.3
Language : English
Default : Yes
Forced : No
Color range : Limited
Color primaries : BT.709
Transfer characteristics : BT.709
Matrix coefficients : BT.709

Audio #1
ID : 2
Format : AC-3
Format/Info : Audio Coding 3
Commercial name : Dolby Digital
Codec ID : A_AC3
Duration : 1 h 46 min
Bit rate mode : Constant
Bit rate : 384 kb/s
Channel(s) : 6 channels
Channel layout : L R C LFE Ls Rs
Sampling rate : 48.0 kHz
Frame rate : 31.250 FPS (1536 SPF)
Compression mode : Lossy
Stream size : 292 MiB (3%)
Title : Dub [iTunes]
Language : Russian
Service kind : Complete Main
Default : Yes
Forced : Yes

Audio #2
ID : 3
Format : AC-3
Format/Info : Audio Coding 3
Commercial name : Dolby Digital
Codec ID : A_AC3
Duration : 1 h 46 min
Bit rate mode : Constant
Bit rate : 384 kb/s
Channel(s) : 6 channels
Channel layout : L R C LFE Ls Rs
Sampling rate : 48.0 kHz
Frame rate : 31.250 FPS (1536 SPF)
Compression mode : Lossy
Stream size : 292 MiB (3%)
Title : MVO [HDRezka Studio]
Language : Russian
Service kind : Complete Main
Default : No
Forced : No

Audio #3
ID : 4
Format : AC-3
Format/Info : Audio Coding 3
Commercial name : Dolby Digital
Codec ID : A_AC3
Duration : 1 h 46 min
Bit rate mode : Constant
Bit rate : 640 kb/s
Channel(s) : 6 channels
Channel layout : L R C LFE Ls Rs
Sampling rate : 48.0 kHz
Frame rate : 31.250 FPS (1536 SPF)
Compression mode : Lossy
Stream size : 486 MiB (4%)
Title : Original
Language : English
Service kind : Complete Main
Default : No
Forced : No

Text
ID : 5
Format : UTF-8
Codec ID : S_TEXT/UTF8
Codec ID/Info : UTF-8 Plain Text
Duration : 1 h 38 min
Bit rate : 66 b/s
Count of elements : 1376
Stream size : 47.7 KiB (0%)
Title : Full
Language : English
Default : No
Forced : No

Menu
00:00:00.000 : en:Chapter 01
00:06:07.583 : en:Chapter 02
00:13:02.250 : en:Chapter 03
00:20:45.208 : en:Chapter 04
00:34:10.417 : en:Chapter 05
00:41:23.000 : en:Chapter 06
00:46:15.417 : en:Chapter 07
00:56:41.083 : en:Chapter 08
01:03:36.167 : en:Chapter 09
01:13:32.125 : en:Chapter 10
01:22:35.667 : en:Chapter 11
01:32:04.917 : en:Chapter 12

pb.wtf



Скачать Мисс Плохое поведение через торрент https://c.radikal.ru/c29/2007/75/8049466c5b43.jpg Скачать фильм Мисс Плохое поведение через торрент бесплантно в хорошем качестве Описание: Англия, 1970-е, эпоха сексуальной революции и поисков новой свободы. Миллионы восторженных зрителей, вспышки фотокамер, шикарные ... 10 10 3
Торрент: Зарегистрирован [2020-09-08 20:20] · скачан: 50 раз
Статус: √ проверено
Размер: 11.21 GB
Как cкачать? Как скачать Мисс Плохое поведение через торрент | qTorrent

% Раздел Тема Автор DL S | L
Фильмы 2019-2020 [DVDrip, WEB-DLRip, HDrip] (DUB, MVO) [ 1.41 GB ] Мисс Плохое поведение / Misbehaviour [2020 история BDRip] - Twi7ter Скачать
50 | 4
Фильмы 2019-2020 [DVDrip, WEB-DLRip, HDrip] (DUB, MVO) [ 1.46 GB ] Мисс Плохое поведение / Misbehaviour [2020 история HDRip] bober100 Скачать
8 | 0
Фильмы [HD 720p, 1080p] (Хороший звук DUB, MVO) [ 5.49 GB ] Мисс Плохое поведение / Misbehaviour [2020 история BDRip 720p] +MVO [HDRezka Studio] bober100 Скачать
3 | 0
Фильмы (WEB-DL 720p, 1080p) [ 5.33 GB ] Мисс Плохое поведение / Misbehaviour [2020 история WEB-DL 1080p] +MVO [HDRezka Studio] bober100 Скачать
2 | 0
Фильмы 2019-2020 [DVDrip, WEB-DLRip, HDrip] (DUB, MVO) [ 1.46 GB ] Мисс Плохое поведение / Misbehaviour [2020 история WEB-DLRip] bober100 Скачать
5 | 0
Фильмы 2019-2020 [DVDrip, WEB-DLRip, HDrip] (DUB, MVO) [ 1.46 GB ] Мисс Плохое поведение / Misbehaviour [2020 история WEB-DLRip] MVO [HDRezka Studio] bober100 Скачать
3 | 0
Фильмы (WEB-DL 720p, 1080p) [ 5.1 GB ] Мисс Плохое поведение / Misbehaviour [2020 история WEB-DL 1080p] MVO [HDRezka studio] bober100 Скачать
3 | 0

28-11-2019 20:33  

Отключить всю рекламу на сайте

    Дорогой пользователь! Огромная просьба, поблагодарите релизера, оцените раздачу и оставьте свои комментарий, если Вы скачали Мисс Плохое поведение через торрент бесплатно! Внесите свою лепту в развитие PiratBit!
    Комментировать посты могут только пользователи прошедшие не сложную регистрацию
    Показать сообщения:    

    Мисс Плохое поведение через торрент
    Скачать бесплатно Мисс Плохое поведение
    Мисс Плохое поведение скачать торрент
    Мисс Плохое поведение смотреть онлайн
    Cкачать фильм Мисс Плохое поведение бесплатно
    Мисс Плохое поведение скачать торрент в хорошем качестве
    Мисс Плохое поведение смотреть онлайн бесплатно в хорошем качестве


    Вы не можете начинать темы
    Вы не можете отвечать на сообщения
    Вы не можете редактировать свои сообщения
    Вы не можете удалять свои сообщения
    Вы не можете голосовать в опросах
    Вы не можете прикреплять файлы к сообщениям
    Вы можете скачивать файлы