Ссылка на приватное зеркало нашего сайта всего за 1$. Внимание количество ограничено!!!

2 сезон

iTunes

1 сезон

1

iTunes

iTunes

iTunes

1 сезон

RePack

30

ИГРА 18+

pack

ВАЖНО

!!Акция!!

Alien_RageХит недели

RePack

MK11
pack

Забери бонус

RePack

jed

!!Акция!!

Alien_Rage

RePack

fifa19

RePack

Assassins Creed: Odyssey

RePack

NEED FOR SPEED™ PAYBACK

4 сезон

9 сезон

Бесстыжие 9 сезон

Все сериалы

все сериалы на PB.wtf

RePack

FAR CRY 5
  

Песня имен / The Song of Names (Франсуа Жирар) [2019, Драма, история, BDRip 720p] DUB [iTunes] pb.wtf

Песня имен через торрент pb.wtf

Раздают: 1 [ 3 KB/s ]
Размер: 3.25 GB | Добавлен: 1 мес. 13 д. назад | Торрент скачан:35 раз
Скачать  

08-09-2020 20:38 Песня имен Скачать торрент  

Песня имен | The Song of Names
Год выпуска: 2019
Страна: Канада, Венгрия
Студия: Serendipity Point Films, Lyla Films, Feel Films
Жанр: Драма, история
Продолжительность: 01:53:20
Перевод: Дублированный | iTunes
Субтитры: Английские

Режиссер: Франсуа Жирар

rating

В ролях: Клайв Оуэн, Тим Рот, Джона Хауэр-Кинг, Кэтрин МакКормак, Эдди Иззард, Сол Рубинек, Герран Хауэлл, Ричард Бреммер, Эми Слоун, Макс Макмиллан, Джулиан Уэдэм

Описание: Лондон. Вторая мировая. Когда семья маленького скрипача Довидла погибает, Симмондсы принимают талантливого мальчика, как родного, а для их сына Мартина он становится больше, чем брат. В день, когда Довидл должен был дать первый концерт, никто так и не смог его отыскать... Лишь сорок лет спустя Мартину удается раскрыть тайну исчезновения юного музыканта.

Качество: BDRip 720p
Формат: MKV

Видео: MPEG-4 AVC, 1280x536, 3100 Kbit/s, 23.976 fps
Аудио #01: 48 kHz, AC3, 5.1, 384 Kbps | iTunes | RUS |
Аудио #02: 48 kHz, AC3, 5.1, 640 Kbps | Оригинал | ENG |
скриншот  скриншот  скриншот  скриншот  скриншот  

General
Unique ID : 68310567340519886477960017932638448729 (0x336422FFD08016191967B99DD6FF6C59)
Complete name : D:Video111The.Song.of.Names.2019.BDRip.720p.seleZen.mkv
Format : Matroska
Format version : Version 4
File size : 3.25 GiB
Duration : 1 h 53 min
Overall bit rate : 4 106 kb/s
Movie name : The Song of Names 2019 from селезень
Encoded date : UTC 2020-09-08 16:45:46
Writing application : mkvmerge v40.0.0 ('Old Town Road + Pony') 64-bit
Writing library : libebml v1.3.9 + libmatroska v1.5.2

Video
ID : 1
Format : AVC
Format/Info : Advanced Video Codec
Format profile : High@L4.1
Format settings : CABAC / 12 Ref Frames
Format settings, CABAC : Yes
Format settings, Reference : 12 frames
Codec ID : V_MPEG4/ISO/AVC
Duration : 1 h 53 min
Bit rate : 3 100 kb/s
Width : 1 280 pixels
Height : 536 pixels
Display aspect ratio : 2.40:1
Frame rate mode : Constant
Frame rate : 23.976 (24000/1001) FPS
Color space : YUV
Chroma subsampling : 4:2:0
Bit depth : 8 bits
Scan type : Progressive
Bits/(Pixel*Frame) : 0.188
Stream size : 2.44 GiB (75%)
Title : Encoded by seleZen
Writing library : x264 core 148 r2705kMod 3f5ed56
Encoding settings : cabac=1 / ref=12 / deblock=1:-2:-2 / analyse=0x3:0x133 / me=umh / subme=10 / psy=1 / fade_compensate=0.00 / psy_rd=1.00:0.00 / mixed_ref=1 / me_range=32 / chroma_me=1 / trellis=2 / 8x8dct=1 / cqm=0 / deadzone=21, 11 / fast_pskip=0 / chroma_qp_offset=-2 / threads=17 / lookahead_threads=2 / sliced_threads=0 / nr=0 / decimate=0 / interlaced=0 / bluray_compat=0 / constrained_intra=0 / fgo=0 / bframes=9 / b_pyramid=2 / b_adapt=2 / b_bias=0 / direct=3 / weightb=1 / open_gop=0 / weightp=2 / keyint=240 / keyint_min=23 / scenecut=40 / intra_refresh=0 / rc_lookahead=50 / rc=2pass / mbtree=0 / bitrate=3100 / ratetol=1.0 / qcomp=0.60 / qpmin=0 / qpmax=51 / qpstep=4 / cplxblur=20.0 / qblur=0.5 / vbv_maxrate=50000 / vbv_bufsize=62500 / nal_hrd=none / filler=0 / ip_ratio=1.40 / pb_ratio=1.30 / aq=3:0.80
Language : English
Default : Yes
Forced : No

Audio #1
ID : 2
Format : AC-3
Format/Info : Audio Coding 3
Commercial name : Dolby Digital
Codec ID : A_AC3
Duration : 1 h 52 min
Bit rate mode : Constant
Bit rate : 384 kb/s
Channel(s) : 6 channels
Channel layout : L R C LFE Ls Rs
Sampling rate : 48.0 kHz
Frame rate : 31.250 FPS (1536 SPF)
Compression mode : Lossy
Stream size : 310 MiB (9%)
Title : iTunes
Language : Russian
Service kind : Complete Main
Default : Yes
Forced : Yes

Audio #2
ID : 3
Format : AC-3
Format/Info : Audio Coding 3
Commercial name : Dolby Digital
Codec ID : A_AC3
Duration : 1 h 53 min
Bit rate mode : Constant
Bit rate : 640 kb/s
Channel(s) : 6 channels
Channel layout : L R C LFE Ls Rs
Sampling rate : 48.0 kHz
Frame rate : 31.250 FPS (1536 SPF)
Compression mode : Lossy
Stream size : 518 MiB (16%)
Title : Original
Language : English
Service kind : Complete Main
Default : No
Forced : No

Text #1
ID : 4
Format : UTF-8
Codec ID : S_TEXT/UTF8
Codec ID/Info : UTF-8 Plain Text
Duration : 1 h 10 min
Bit rate : 2 b/s
Count of elements : 48
Stream size : 1.14 KiB (0%)
Title : Forced
Language : English
Default : No
Forced : No

Text #2
ID : 5
Format : UTF-8
Codec ID : S_TEXT/UTF8
Codec ID/Info : UTF-8 Plain Text
Duration : 1 h 42 min
Bit rate : 43 b/s
Count of elements : 1001
Stream size : 33.0 KiB (0%)
Title : Full
Language : English
Default : No
Forced : No

Text #3
ID : 6
Format : UTF-8
Codec ID : S_TEXT/UTF8
Codec ID/Info : UTF-8 Plain Text
Duration : 1 h 45 min
Bit rate : 46 b/s
Count of elements : 1105
Stream size : 35.5 KiB (0%)
Title : SDH
Language : English
Default : No
Forced : No

Menu
00:00:00.000 : en:Глава 01
00:00:00.209 : en:Глава 02
00:11:18.970 : en:Глава 03
00:18:12.967 : en:Глава 04
00:26:36.678 : en:Глава 05
00:32:04.673 : en:Глава 06
00:38:29.974 : en:Глава 07
00:42:44.771 : en:Глава 08
00:47:27.428 : en:Глава 09
00:54:01.029 : en:Глава 10
00:58:31.758 : en:Глава 11
01:04:42.629 : en:Глава 12
01:12:15.748 : en:Глава 13
01:21:08.655 : en:Глава 14
01:27:03.552 : en:Глава 15
01:34:58.109 : en:Глава 16
01:40:10.755 : en:Глава 17
01:45:26.278 : en:Глава 18
01:53:07.906 : en:Глава 19

pb.wtf



Скачать Песня имен через торрент https://i112.fastpic.ru/big/2020/0908/14/48bde5d7f10e9d3bcf20d926c04b2214.jpg Скачать фильм Песня имен через торрент бесплантно в хорошем качестве Описание: Лондон. Вторая мировая. Когда семья маленького скрипача Довидла погибает, Симмондсы принимают талантливого мальчика, как родного, ... 10 10 2
Торрент: Зарегистрирован [2020-09-08 20:38] · скачан: 35 раз
Статус: √ проверено
Размер: 3.25 GB
Как cкачать? Как скачать Песня имен через торрент | qTorrent

% Раздел Тема Автор DL S | L
Фильмы 2019-2020 [DVDrip, WEB-DLRip, HDrip] (DUB, MVO) [ 1.41 GB ] Песня имен / The Song of Names [2019 история BDRip] - Twi7ter Скачать
15 | 1
Фильмы 2019-2020 [DVDrip, WEB-DLRip, HDrip] (DUB, MVO) [ 747 MB ] Песня имен / The Song of Names [2019 история HDRip] bober100 Скачать
3 | 0
Фильмы (Blu-ray, BD-Remux, HDDVD) [ 9.93 GB ] Песня имен / The Song of Names [2019 история BD Remux 1080p] bober100 Скачать
1 | 0
Фильмы [HD 720p, 1080p] (Хороший звук DUB, MVO) [ 7.22 GB ] Песня имен / The Song of Names [2019 история BDRip 1080p] bober100 Скачать
2 | 0
Фильмы 2019-2020 [DVDrip, WEB-DLRip, HDrip] (DUB, MVO) [ 1.46 GB ] Песня имен / The Song of Names [2019 история BDRip] bober100 Скачать
4 | 0
Фильмы (WEB-DL 720p, 1080p) [ 3.36 GB ] Песня имен / The Song of Names [2019 история WEB-DL 720p] bober100 Скачать
2 | 0

28-11-2019 20:33  

Отключить всю рекламу на сайте

    Дорогой пользователь! Огромная просьба, поблагодарите релизера, оцените раздачу и оставьте свои комментарий, если Вы скачали Песня имен через торрент бесплатно! Внесите свою лепту в развитие PiratBit!
    Комментировать посты могут только пользователи прошедшие не сложную регистрацию
    Показать сообщения:    

    Песня имен через торрент
    Скачать бесплатно Песня имен
    Песня имен скачать торрент
    Песня имен смотреть онлайн
    Cкачать фильм Песня имен бесплатно
    Песня имен скачать торрент в хорошем качестве
    Песня имен смотреть онлайн бесплатно в хорошем качестве


    Вы не можете начинать темы
    Вы не можете отвечать на сообщения
    Вы не можете редактировать свои сообщения
    Вы не можете удалять свои сообщения
    Вы не можете голосовать в опросах
    Вы не можете прикреплять файлы к сообщениям
    Вы можете скачивать файлы