Ссылка на приватное зеркало нашего сайта всего за 1$. Внимание количество ограничено!!!

2 сезон

iTunes

1 сезон

1

iTunes

iTunes

iTunes

1 сезон

RePack

30

ИГРА 18+

pack

ВАЖНО

!!Акция!!

Alien_RageХит недели

RePack

MK11
pack

Забери бонус

RePack

jed

!!Акция!!

Alien_Rage

RePack

fifa19

RePack

Assassins Creed: Odyssey

RePack

NEED FOR SPEED™ PAYBACK

4 сезон

9 сезон

Бесстыжие 9 сезон

Все сериалы

все сериалы на PB.wtf

RePack

FAR CRY 5
  

Думаю, как всё закончить / I'm Thinking of Ending Things (Чарли Кауфман) [2020, Триллер, драма, WEB-DL 1080p] MVO [HDRezka Studio] pb.wtf

Думаю, как всё закончить через торрент pb.wtf

Раздают: 9 [ 783 KB/s ]
Размер: 7.79 GB | Добавлен: 1 мес. 16 д. назад | Торрент скачан:181 раз
Скачать  

09-09-2020 03:10 Думаю, как всё закончить Скачать торрент  

Думаю, как всё закончить | I'm Thinking of Ending Things
Год выпуска: 2020
Страна: США
Студия: Likely Story, Projective Testing Service
Жанр: Триллер, драма
Продолжительность: 02:14:46
Перевод: Профессиональный (многоголосый) | HDRezka Studio
Субтитры: Русские (Forced, Full), английские, испанские, французские, немецкие, итальянские, португальские | Нетфликс

Режиссер: Чарли Кауфман

rating

В ролях: Джесси Племонс, Джесси Бакли, Тони Коллетт, Дэвид Тьюлис, Джейсон Ральф, Колби Минифи, Эбби Куинн, Гай Бойд, Хэдли Робинсон, Тедди Колука, Эшлин Алесси, Энтони Грассо, DJ Нино Карта, Ира Темчин, Остин Феррис, Данниэль Роуз, Варвара Карденас

Описание: Джейк отправляется на отдалённую ферму, чтобы познакомить свою девушку с родителями. Ирония в том, что та хотела порвать с Джейком и теперь находится в затруднительном положении. По прибытии выясняется, что в доме родителей Джейка творится что-то странное, и сами потенциальные родственники ведут себя очень подозрительно.

Качество: WEB-DL 1080p
Формат: MKV

Видео: MPEG-4 AVC, 7180 Kбит/с, 1440x1080, 24.000 кадр/с
Аудио#1: Русский (АС3, 6 ch, 448 Кбит/с, 48.0 KHz) Профессиональный (многоголосый, закадровый) HDRezka Studio
Аудио#2: Английский (АС3, 6 ch, 640 Кбит/с, 48.0 KHz)
скриншот  скриншот  скриншот  скриншот  скриншот  

Источник: Im.Thinking.of.Ending.Things.2020.1080p.NF.WEB-DL.DDP5.1.x264-CM
General
Unique ID : 202920906654659469193519061286575953052 (0x98A92521CA30F835AE76FD542388549C)
Complete name : Im.Thinking.of.Ending.Things.2020.NF.WEB-DL.1080p.mkv
Format : Matroska
Format version : Version 4
File size : 7.79 GiB
Duration : 2 h 14 min
Overall bit rate mode : Variable
Overall bit rate : 8 271 kb/s
Encoded date : UTC 2020-09-08 20:46:36
Writing application : mkvmerge v7.1.0 ('Good Love') 64bit built on Jul 27 2014 13:06:55
Writing library : libebml v1.3.0 + libmatroska v1.4.1

Video
ID : 1
Format : AVC
Format/Info : Advanced Video Codec
Format profile : High@L4
Format settings : CABAC / 4 Ref Frames
Format settings, CABAC : Yes
Format settings, Reference fra : 4 frames
Codec ID : V_MPEG4/ISO/AVC
Duration : 2 h 14 min
Bit rate mode : Variable
Bit rate : 7 180 kb/s
Maximum bit rate : 20.0 Mb/s
Width : 1 440 pixels
Height : 1 080 pixels
Display aspect ratio : 4:3
Frame rate mode : Constant
Frame rate : 24.000 FPS
Color space : YUV
Chroma subsampling : 4:2:0
Bit depth : 8 bits
Scan type : Progressive
Bits/(Pixel*Frame) : 0.192
Stream size : 6.76 GiB (87%)
Writing library : x264 core 148 r2722 1b0121b
Encoding settings : cabac=1 / ref=4 / deblock=1:0:0 / analyse=0x3:0x111 / me=umh / subme=10 / psy=1 / psy_rd=1.00:0.00 / mixed_ref=1 / me_range=120 / chroma_me=1 / trellis=2 / 8x8dct=1 / cqm=0 / deadzone=21,11 / fast_pskip=1 / chroma_qp_offset=-2 / threads=8 / lookahead_threads=2 / sliced_threads=0 / nr=0 / decimate=1 / interlaced=0 / bluray_compat=0 / stitchable=1 / constrained_intra=0 / bframes=16 / b_pyramid=2 / b_adapt=2 / b_bias=0 / direct=3 / weightb=1 / open_gop=0 / weightp=2 / keyint=240 / keyint_min=121 / scenecut=0 / intra_refresh=0 / rc_lookahead=240 / rc=crf / mbtree=1 / crf=25.0 / qcomp=0.50 / qpmin=6 / qpmax=51 / qpstep=4 / vbv_maxrate=20000 / vbv_bufsize=25000 / crf_max=0.0 / nal_hrd=vbr / filler=0 / ip_ratio=1.40 / aq=1:0.80
Language : English
Default : Yes
Forced : No

Audio #1
ID : 2
Format : AC-3
Format/Info : Audio Coding 3
Commercial name : Dolby Digital
Codec ID : A_AC3
Duration : 2 h 14 min
Bit rate mode : Constant
Bit rate : 448 kb/s
Channel(s) : 6 channels
Channel layout : L R C LFE Ls Rs
Sampling rate : 48.0 kHz
Frame rate : 31.250 FPS (1536 SPF)
Compression mode : Lossy
Stream size : 432 MiB (5%)
Title : MVO | HDRezka Studio
Language : Russian
Service kind : Complete Main
Default : Yes
Forced : No

Audio #2
ID : 3
Format : AC-3
Format/Info : Audio Coding 3
Commercial name : Dolby Digital
Codec ID : A_AC3
Duration : 2 h 14 min
Bit rate mode : Constant
Bit rate : 640 kb/s
Channel(s) : 6 channels
Channel layout : L R C LFE Ls Rs
Sampling rate : 48.0 kHz
Frame rate : 31.250 FPS (1536 SPF)
Compression mode : Lossy
Stream size : 617 MiB (8%)
Language : English
Service kind : Complete Main
Default : No
Forced : No

Text #1
ID : 4
Format : UTF-8
Codec ID : S_TEXT/UTF8
Codec ID/Info : UTF-8 Plain Text
Duration : 2 h 8 min
Bit rate : 2 b/s
Count of elements : 48
Stream size : 1.95 KiB (0%)
Title : Forced
Language : Russian
Default : Yes
Forced : No

Text #2
ID : 5
Format : UTF-8
Codec ID : S_TEXT/UTF8
Codec ID/Info : UTF-8 Plain Text
Duration : 2 h 13 min
Bit rate : 99 b/s
Count of elements : 1878
Stream size : 96.8 KiB (0%)
Title : Russian
Language : Russian
Default : No
Forced : No

Text #3
ID : 6
Format : UTF-8
Codec ID : S_TEXT/UTF8
Codec ID/Info : UTF-8 Plain Text
Duration : 2 h 13 min
Bit rate : 97 b/s
Count of elements : 2404
Stream size : 95.4 KiB (0%)
Title : English
Language : English
Default : No
Forced : No

Text #4
ID : 7
Format : UTF-8
Codec ID : S_TEXT/UTF8
Codec ID/Info : UTF-8 Plain Text
Duration : 2 h 13 min
Bit rate : 59 b/s
Count of elements : 1821
Stream size : 58.3 KiB (0%)
Title : French
Language : French
Default : No
Forced : No

Text #5
ID : 8
Format : UTF-8
Codec ID : S_TEXT/UTF8
Codec ID/Info : UTF-8 Plain Text
Duration : 2 h 13 min
Bit rate : 61 b/s
Count of elements : 1739
Stream size : 59.8 KiB (0%)
Title : German
Language : German
Default : No
Forced : No

Text #6
ID : 9
Format : UTF-8
Codec ID : S_TEXT/UTF8
Codec ID/Info : UTF-8 Plain Text
Duration : 2 h 13 min
Bit rate : 59 b/s
Count of elements : 1742
Stream size : 58.6 KiB (0%)
Title : Italian
Language : Italian
Default : No
Forced : No

Text #7
ID : 10
Format : UTF-8
Codec ID : S_TEXT/UTF8
Codec ID/Info : UTF-8 Plain Text
Duration : 2 h 13 min
Bit rate : 61 b/s
Count of elements : 1848
Stream size : 59.6 KiB (0%)
Title : Spanish
Language : Spanish
Default : No
Forced : No

Text #8
ID : 11
Format : UTF-8
Codec ID : S_TEXT/UTF8
Codec ID/Info : UTF-8 Plain Text
Duration : 2 h 13 min
Bit rate : 62 b/s
Count of elements : 1787
Stream size : 60.9 KiB (0%)
Title : Portuguese
Language : Portuguese
Default : No
Forced : No

pb.wtf



Скачать Думаю, как всё закончить через торрент http://c.radikal.ru/c34/2009/8c/9cfc80cbb363.jpg Скачать фильм Думаю, как всё закончить через торрент бесплантно в хорошем качестве Описание: Джейк отправляется на отдалённую ферму, чтобы познакомить свою девушку с родителями. Ирония в том, что та хотела порвать с ... 9.6 10 5
Info! Золотая раздача, скачанное не засчитывается.
Торрент: Зарегистрирован [2020-09-09 03:10] · скачан: 181 раз
Статус: √ проверено
Размер: 7.79 GB
Как cкачать? Как скачать Думаю, как всё закончить через торрент | qTorrent

28-11-2019 20:33  

Отключить всю рекламу на сайте

    Дорогой пользователь! Огромная просьба, поблагодарите релизера, оцените раздачу и оставьте свои комментарий, если Вы скачали Думаю, как всё закончить через торрент бесплатно! Внесите свою лепту в развитие PiratBit!
    Комментировать посты могут только пользователи прошедшие не сложную регистрацию
    Показать сообщения:    

    Думаю, как всё закончить через торрент
    Скачать бесплатно Думаю, как всё закончить
    Думаю, как всё закончить скачать торрент
    Думаю, как всё закончить смотреть онлайн
    Cкачать фильм Думаю, как всё закончить бесплатно
    Думаю, как всё закончить скачать торрент в хорошем качестве
    Думаю, как всё закончить смотреть онлайн бесплатно в хорошем качестве


    Вы не можете начинать темы
    Вы не можете отвечать на сообщения
    Вы не можете редактировать свои сообщения
    Вы не можете удалять свои сообщения
    Вы не можете голосовать в опросах
    Вы не можете прикреплять файлы к сообщениям
    Вы можете скачивать файлы