Ссылка на приватное зеркало нашего сайта всего за 1$. Внимание количество ограничено!!!

2 сезон

iTunes

1 сезон

1

iTunes

iTunes

iTunes

1 сезон

RePack

30

ИГРА 18+

pack

ВАЖНО

!!Акция!!

Alien_RageХит недели

RePack

MK11
pack

Забери бонус

RePack

jed

!!Акция!!

Alien_Rage

RePack

fifa19

RePack

Assassins Creed: Odyssey

RePack

NEED FOR SPEED™ PAYBACK

4 сезон

9 сезон

Бесстыжие 9 сезон

Все сериалы

все сериалы на PB.wtf

RePack

FAR CRY 5
  

Правдивая ложь / True Lies (Джеймс Кэмерон) [1994, Боевик, триллер, BDRip-HEVC 1080p, (10 bit)] DUB+DVO+AVO pb.wtf

Правдивая ложь через торрент pb.wtf

Раздают: 1 [ 45 KB/s ]
Размер: 11.66 GB | Добавлен: 1 мес. 16 д. назад | Торрент скачан:49 раз
Скачать  

09-09-2020 18:06 Правдивая ложь Скачать торрент  

Правдивая ложь | True Lies
Год выпуска: 1994
Страна: США
Студия: 20th Century Fox Film Corporation, Lightstorm Entertainment
Жанр: Боевик, триллер
Продолжительность: 02:20:47
Перевод: Дублированный , Профессиональный (двухголосый закадровый), Авторский (одноголосый закадровый)
Субтитры: Русские, английские

Режиссер: Джеймс Кэмерон

rating

В ролях: Арнольд Шварценеггер, Джейми Ли Кёртис, Том Арнольд, Билл Пэкстон, Тиа Каррере, Арт Малик, Чарлтон Хестон, Элиза Душку, Грант Хеслов, Маршалл Манеш, Джеймс Аллен, Дитер Раутер

Описание: Для своей семьи Гарри Таскер - любящий муж и отец, человек скромный и рассеянный, обыкновенный продавец компьютеров, «не вылезающий» с работы ни днем, ни ночью. Но лишь немногие знают, что на самом деле Гарри - специальный агент тайной правительственной службы, специализирующийся на особо опасных заданиях, владеющий кучей языков, всеми видами оружия и всеми возможными способами «отправки» злодеев на тот свет.Агент Таскер и дальше продолжал бы вести двойную жизнь, если бы зловещие арабские террористы не похитили Гарри, а вместе с ним и его ничего не подозревающую жену Хэлен. Но бандиты, к своему несчастью, даже не подозревали с кем связались. И Хэлен узнала, что муж ее совсем не компьютерщик, и что она пятнадцать лет прожила с человеком, рядом с которым мускулистый Рэмбо выглядит ребенком…

Качество: BDRip-HEVC 1080p
Формат: MKV

Видео: 1920x804, 9673 Кбит/сек, 0.261 бит/(Пиксели*Кадры), 23,976 кадр/сек, HEVC (Main10@L.4.1@High) 10 бит
Аудио#1: Русский, AC3, 448 Кбит/сек, 5.1, 48,0 КГц - Профессиональный двухголосый закадровый (НТВ+)
Аудио#2: Русский, AC3, 448 Кбит/сек, 5.1, 48,0 КГц - Дубляж
Аудио#3: Русский, AC3, 640 Кбит/сек, 5.1, 48,0 КГц - Авторский, Андрей Гаврилов
Аудио#4: Английский, AC3, 640 Кбит/сек, 5.1, 48,0 КГц - Оригинал
скриншот  скриншот  скриншот  скриншот  скриншот  

x265 [info]: frame I: 2299, Avg QP:17.84 kb/s: 33843.14
x265 [info]: frame P: 45488, Avg QP:19.29 kb/s: 20421.52
x265 [info]: frame B: 154762, Avg QP:21.68 kb/s: 6153.11
x265 [info]: Weighted P-Frames: Y:6.0% UV:4.3%
x265 [info]: Weighted B-Frames: Y:4.8% UV:2.8%
x265 [info]: consecutive B-frames: 8.8% 4.7% 9.2% 41.7% 9.8% 21.4% 2.1% 1.8% 0.2% 0.1% 0.1%

encoded 202549 frames in 472784.95s (0.43 fps), 9671.77 kb/s, Avg QP:21.10

Формат : Matroska
Версия формата : Version 4
Размер файла : 11,7 Гбайт
Продолжительность : 2 ч. 20 м.
Общий поток : 11,9 Мбит/сек
Название фильма : by Spartanec
Дата кодирования : UTC 2020-09-09 12:23:10
Программа кодирования : mkvmerge v7.0.0 ('Where We Going') 64bit built on Jun 9 2014 15:16:27
Библиотека кодирования : libebml v1.3.0 + libmatroska v1.4.1 / Lavf57.71.100
Обложка : Yes
Attachments : cover.jpg

Видео
Идентификатор : 1
Формат : HEVC
Формат/Информация : High Efficiency Video Coding
Профиль формата : Main 10@L4.1@High
Идентификатор кодека : V_MPEGH/ISO/HEVC
Продолжительность : 2 ч. 20 м.
Битрейт : 9673 Кбит/сек
Ширина : 1920 пикселей
Высота : 804 пикселя
Соотношение сторон : 2,40:1
Режим частоты кадров : Постоянный
Частота кадров : 23,976 (23976/1000) кадра/сек
Частота кадров в оригинале : 23,976 (24000/1001) кадра/сек
Цветовое пространство : YUV
Субдискретизация насыщенности : 4:2:0
Битовая глубина : 10 бит
Бит/(Пиксели*Кадры) : 0.261
Размер потока : 9,51 Гбайт (82%)
Заголовок : Spartanec
Библиотека кодирования : x265 3.4+4-g3ae3d7116:[Windows][GCC 10.2.0][64 bit] 10bit
Настройки программы : cpuid=1111039 / frame-threads=4 / numa-pools=16 / wpp / no-pmode / no-pme / no-psnr / no-ssim / log-level=2 / input-csp=1 / input-res=1920x804 / interlace=0 / total-frames=202549 / level-idc=41 / high-tier=1 / uhd-bd=0 / ref=5 / no-allow-non-conformance / no-repeat-headers / annexb / no-aud / no-hrd / info / hash=0 / no-temporal-layers / open-gop / min-keyint=23 / keyint=240 / gop-lookahead=0 / bframes=10 / b-adapt=2 / b-pyramid / bframe-bias=0 / rc-lookahead=60 / lookahead-slices=1 / scenecut=40 / hist-scenecut=0 / radl=0 / no-splice / no-intra-refresh / ctu=32 / min-cu-size=8 / rect / amp / max-tu-size=32 / tu-inter-depth=4 / tu-intra-depth=4 / limit-tu=1 / rdoq-level=1 / dynamic-rd=0.00 / no-ssim-rd / signhide / no-tskip / nr-intra=0 / nr-inter=0 / no-constrained-intra / no-strong-intra-smoothing / max-merge=5 / limit-refs=0 / no-limit-modes / me=3 / subme=7 / merange=57 / temporal-mvp / no-frame-dup / no-hme / weightp / weightb / no-analyze-src-pics / deblock=-2:-2 / no-sao / no-sao-non-deblock / rd=6 / selective-sao=0 / no-early-skip / no-rskip / no-fast-intra / no-tskip-fast / no-cu-lossless / b-intra / no-splitrd-skip / rdpenalty=0 / psy-rd=2.00 / psy-rdoq=1.00 / no-rd-refine / no-lossless / cbqpoffs=0 / crqpoffs=0 / rc=crf / crf=20.0 / qcomp=0.70 / qpstep=4 / stats-write=0 / stats-read=0 / vbv-maxrate=50000 / vbv-bufsize=50000 / vbv-init=0.9 / crf-max=0.0 / crf-min=0.0 / ipratio=1.40 / pbratio=1.30 / aq-mode=2 / aq-strength=1.00 / no-cutree / zone-count=0 / no-strict-cbr / qg-size=32 / no-rc-grain / qpmax=69 / qpmin=0 / no-const-vbv / sar=1 / overscan=0 / videoformat=5 / range=0 / colorprim=1 / transfer=1 / colormatrix=1 / chromaloc=0 / display-window=0 / cll=0,0 / min-luma=0 / max-luma=1023 / log2-max-poc-lsb=8 / vui-timing-info / vui-hrd-info / slices=1 / no-opt-qp-pps / no-opt-ref-list-length-pps / no-multi-pass-opt-rps / scenecut-bias=0.05 / hist-threshold=0.01 / no-opt-cu-delta-qp / no-aq-motion / no-hdr10 / no-hdr10-opt / no-dhdr10-opt / no-idr-recovery-sei / analysis-reuse-level=0 / analysis-save-reuse-level=0 / analysis-load-reuse-level=0 / scale-factor=0 / refine-intra=0 / refine-inter=0 / refine-mv=0 / refine-ctu-distortion=0 / no-limit-sao / ctu-info=0 / no-lowpass-dct / refine-analysis-type=0 / copy-pic=1 / max-ausize-factor=1.0 / no-dynamic-refine / no-single-sei / no-hevc-aq / no-svt / no-field / qp-adaptation-range=1.00 / no-scenecut-aware-qpconformance-window-offsets / right=0 / bottom=0 / decoder-max-rate=0
Язык : English
Default : Да
Forced : Нет
Цветовой диапазон : Limited
Основные цвета : BT.709
Характеристики трансфера : BT.709
Коэффициенты матрицы : BT.709

Аудио #1
Идентификатор : 2
Формат : AC-3
Формат/Информация : Audio Coding 3
Коммерческое название : Dolby Digital
Идентификатор кодека : A_AC3
Продолжительность : 2 ч. 20 м.
Вид битрейта : Постоянный
Битрейт : 448 Кбит/сек
Каналы : 6 каналов
ChannelLayout : L R C LFE Ls Rs
Частота : 48,0 КГц
Частота кадров : 31,250 кадров/сек (1536 SPF)
Битовая глубина : 16 бит
Метод сжатия : С потерями
Размер потока : 451 Мбайт (4%)
Заголовок : Профессиональный двухголосый закадровый (НТВ+)
Язык : Russian
ServiceKind/ : Complete Main
Default : Нет
Forced : Нет

Аудио #2
Идентификатор : 3
Формат : AC-3
Формат/Информация : Audio Coding 3
Коммерческое название : Dolby Digital
Идентификатор кодека : A_AC3
Продолжительность : 2 ч. 20 м.
Вид битрейта : Постоянный
Битрейт : 448 Кбит/сек
Каналы : 6 каналов
ChannelLayout : L R C LFE Ls Rs
Частота : 48,0 КГц
Частота кадров : 31,250 кадров/сек (1536 SPF)
Битовая глубина : 16 бит
Метод сжатия : С потерями
Размер потока : 451 Мбайт (4%)
Заголовок : Дубляж
Язык : Russian
ServiceKind/ : Complete Main
Default : Да
Forced : Нет

Аудио #3
Идентификатор : 4
Формат : AC-3
Формат/Информация : Audio Coding 3
Коммерческое название : Dolby Digital
Идентификатор кодека : A_AC3
Продолжительность : 2 ч. 20 м.
Вид битрейта : Постоянный
Битрейт : 640 Кбит/сек
Каналы : 6 каналов
ChannelLayout : L R C LFE Ls Rs
Частота : 48,0 КГц
Частота кадров : 31,250 кадров/сек (1536 SPF)
Битовая глубина : 16 бит
Метод сжатия : С потерями
Размер потока : 644 Мбайт (5%)
Заголовок : AVO (Gavrilov)
Язык : Russian
ServiceKind/ : Complete Main
Default : Нет
Forced : Нет

Аудио #4
Идентификатор : 5
Формат : AC-3
Формат/Информация : Audio Coding 3
Коммерческое название : Dolby Digital
Идентификатор кодека : A_AC3
Продолжительность : 2 ч. 20 м.
Вид битрейта : Постоянный
Битрейт : 640 Кбит/сек
Каналы : 6 каналов
ChannelLayout : L R C LFE Ls Rs
Частота : 48,0 КГц
Частота кадров : 31,250 кадров/сек (1536 SPF)
Битовая глубина : 16 бит
Метод сжатия : С потерями
Размер потока : 644 Мбайт (5%)
Язык : English
ServiceKind/ : Complete Main
Default : Нет
Forced : Нет

Текст #1
Идентификатор : 6
Формат : UTF-8
Идентификатор кодека : S_TEXT/UTF8
Идентификатор кодека/Информация : UTF-8 Plain Text
Продолжительность : 2 ч. 17 м.
Битрейт : 69 бит/сек
ElementCount : 1142
Размер потока : 69,5 Кбайт (0%)
Заголовок : R5, Lizard
Язык : Russian
Default : Да
Forced : Нет

Текст #2
Идентификатор : 7
Формат : UTF-8
Идентификатор кодека : S_TEXT/UTF8
Идентификатор кодека/Информация : UTF-8 Plain Text
Продолжительность : 2 ч. 19 м.
Битрейт : 77 бит/сек
ElementCount : 1333
Размер потока : 78,9 Кбайт (0%)
Заголовок : R5, 20th Century Fox
Язык : Russian
Default : Нет
Forced : Нет

Текст #3
Идентификатор : 8
Формат : UTF-8
Идентификатор кодека : S_TEXT/UTF8
Идентификатор кодека/Информация : UTF-8 Plain Text
Продолжительность : 2 ч. 17 м.
Битрейт : 48 бит/сек
ElementCount : 1310
Размер потока : 49,0 Кбайт (0%)
Заголовок : R5, 20th Century Fox
Язык : English
Default : Нет
Forced : Нет

Текст #4
Идентификатор : 9
Формат : UTF-8
Идентификатор кодека : S_TEXT/UTF8
Идентификатор кодека/Информация : UTF-8 Plain Text
Продолжительность : 2 ч. 14 м.
Битрейт : 45 бит/сек
ElementCount : 1265
Размер потока : 45,1 Кбайт (0%)
Заголовок : R2, Universal
Язык : English
Default : Нет
Forced : Нет

Меню
00:00:00.000 : :Глава 01
00:15:18.250 : :Глава 02
00:28:07.018 : :Глава 03
00:40:55.786 : :Глава 04
00:54:37.941 : :Глава 05
01:08:09.418 : :Глава 06
01:20:17.896 : :Глава 07
01:35:36.147 : :Глава 08
01:48:24.915 : :Глава 09
01:59:45.845 : :Глава 10
02:07:14.293 : :Глава 11
02:14:00.032 : :Глава 12

pb.wtf



Скачать Правдивая ложь через торрент https://a.radikal.ru/a37/2009/89/145e7457cd89.jpg Скачать фильм Правдивая ложь через торрент бесплантно в хорошем качестве Описание: Для своей семьи Гарри Таскер - любящий муж и отец, человек скромный и рассеянный, обыкновенный продавец компьютеров, «не ... 9.8 10 5
Info! Золотая раздача, скачанное не засчитывается.
Торрент: Зарегистрирован [2020-09-09 18:06] · скачан: 49 раз
Статус: √ проверено
Размер: 11.66 GB
Как cкачать? Как скачать Правдивая ложь через торрент | qTorrent

% Раздел Тема Автор DL S | L
Фильмы (HD 720p, 1080p) (48-60 fps) [ 8.61 GB ] Правдивая ложь / True Lies [1994 D-TheaterRip 720p 60fps от еnvy / NNNB] DUB MVO AVO еnvy Скачать
3 | 0
Фильмы [HD 720p, 1080p] (Хороший звук DUB, MVO) [ 17.87 GB ] Правдивая ложь / True Lies [1994 DTheaterRip 1080p] DUB MVO AVO msltel Скачать
2 | 0
Фильмы [HD 720p, 1080p] (Хороший звук DUB, MVO) [ 10.58 GB ] Правдивая ложь / True Lies [1994 DTH-Rip 720p] DUB MVO AVO msltel Скачать
1 | 0

28-11-2019 20:33  

Отключить всю рекламу на сайте

    Дорогой пользователь! Огромная просьба, поблагодарите релизера, оцените раздачу и оставьте свои комментарий, если Вы скачали Правдивая ложь через торрент бесплатно! Внесите свою лепту в развитие PiratBit!
    Комментировать посты могут только пользователи прошедшие не сложную регистрацию
    Показать сообщения:    

    Правдивая ложь через торрент
    Скачать бесплатно Правдивая ложь
    Правдивая ложь скачать торрент
    Правдивая ложь смотреть онлайн
    Cкачать фильм Правдивая ложь бесплатно
    Правдивая ложь скачать торрент в хорошем качестве
    Правдивая ложь смотреть онлайн бесплатно в хорошем качестве


    Вы не можете начинать темы
    Вы не можете отвечать на сообщения
    Вы не можете редактировать свои сообщения
    Вы не можете удалять свои сообщения
    Вы не можете голосовать в опросах
    Вы не можете прикреплять файлы к сообщениям
    Вы можете скачивать файлы