Ссылка на приватное зеркало нашего сайта всего за 1$. Внимание количество ограничено!!!

2 сезон

iTunes

1 сезон

1

iTunes

iTunes

iTunes

1 сезон

RePack

30

ИГРА 18+

pack

ВАЖНО

!!Акция!!

Alien_RageХит недели

RePack

MK11
pack

Забери бонус

RePack

jed

!!Акция!!

Alien_Rage

RePack

fifa19

RePack

Assassins Creed: Odyssey

RePack

NEED FOR SPEED™ PAYBACK

4 сезон

9 сезон

Бесстыжие 9 сезон

Все сериалы

все сериалы на PB.wtf

RePack

FAR CRY 5
  

8 миля / 8 Mile (Кёртис Хэнсон) [2002, драма, музыка, WEB-DL 1080p] [Open Matte] [Dub] + 4x[MVO] + [AVO](Королев) pb.wtf

8 миля через торрент pb.wtf

Раздают: 1 [ 0 KB/s ]
Размер: 13.09 GB | Добавлен: 1 мес. 15 д. назад | Торрент скачан:60 раз
Скачать  

10-09-2020 08:37 8 миля Скачать торрент  

8 миля / 8 Mile
Every moment is another chance.

Год выпуска: 2002
Страна: США
Студия: Imagine Entertainment, Mikona Productions GmbH & Co. KG
Жанр: драма, музыка
Продолжительность: 01:50:27
Перевод 1: Профессиональный (дублированный) Пифагор
Перевод 2: Профессиональный (многоголосый закадровый) ОРТ, 1 вариант
Перевод 3: Профессиональный (многоголосый закадровый) ОРТ, 2 вариант
Перевод 4: Профессиональный (многоголосый закадровый) СТС
Перевод 5: Профессиональный (многоголосый закадровый) Премьер Видео
Перевод 6: Авторский (одноголосый закадровый) В. Королев
Субтитры: русские (форсированные, перевод баттлов, перевод рэпа и баттлов, полные), английские (Full, SDH)
Оригинальная аудиодорожка: английский
Режиссер: Кёртис Хэнсон / Curtis Hanson

В ролях: Эминем, Ким Бейсингер, Мехи Файфер, Бриттани Мерфи, Эван Джонс, Де'Анджело Уилсон, Тарин Мэннинг, Майкл Шеннон, Омар Бенсон Миллер, Юджин Берд, Хлоя Гринфилд

Описание: Детройт, 1995 год. Блестящая и многообещающая политика индустриального развития города терпит крах и приводит к хаосу и неразберихе, что в результате выливается в один из самых серьезных в американской истории конфликтов между белым и цветным населением. Люди, мирно жившие рядом, оказались по разные стороны баррикад.
Шоссе «8 Миля», отделяющее Детройт от пригорода, становится разделительной полосой между черными и белыми. Происходящее в городе находит свое отражение в музыке. В бедных кварталах пригорода, где главная цель — выживание, для многих обитателей хип-хоп становится эмоциональной отдушиной, средством, помогающим вырваться из жесткой повседневной реальности.
Доп. информация: добавлены главы с Blu-ray.


Тип релиза: WEB-DL 1080p (spartanec163)
Контейнер: MKV

Видео: MPEG-4 AVC (High@L4.0), 1920x1080p (16:9), 23.976 fps, 13405 kbps, 0.270 bits/pixel
Аудио 1: Russian: AC3, 5.1, 48 kHz, 384 kbps | (Dub) Пифагор
Аудио 2: Russian: AC3, 2.0, 48 kHz, 192 kbps | (MVO) ОРТ, 1 вариант
Аудио 3: Russian: AC3, 5.1, 48 kHz, 448 kbps | (MVO) ОРТ, 2 вариант
Аудио 4: Russian: AC3, 2.0, 48 kHz, 192 kbps | (MVO) СТС
Аудио 5: Russian: AC3, 2.0, 48 kHz, 192 kbps | (MVO) Премьер Видео
Аудио 6: Russian: AC3, 5.1, 48 kHz, 640 kbps | (AVO) В. Королев
Аудио 7: English: DTS, 5.1, 48 kHz, 1509 kbps, 24 bits | Original
Формат субтитров: softsub (SRT)
General
Complete name : 8.Mile.2002.WEB-DL.1080p.OM.mkv
Format : Matroska
Format version : Version 4
File size : 13.1 GiB
Duration : 1 h 50 min
Overall bit rate mode : Variable
Overall bit rate : 17.0 Mb/s
Movie name : 8 Mile (2002)
Encoded date : UTC 2020-09-09 21:02:32
Writing application : mkvmerge v48.0.0 ('Fortress Around Your Heart') 64-bit
Writing library : libebml v1.4.0 + libmatroska v1.6.0
Cover : Yes
Attachments : cover.jpg / cover_land.jpg

Video
ID : 1
Format : AVC
Format/Info : Advanced Video Codec
Format profile : High@L4
Format settings : CABAC / 4 Ref Frames
Format settings, CABAC : Yes
Format settings, Reference frames : 4 frames
Codec ID : V_MPEG4/ISO/AVC
Duration : 1 h 50 min
Bit rate mode : Variable
Bit rate : 13.4 Mb/s
Maximum bit rate : 15.0 Mb/s
Width : 1 920 pixels
Height : 1 080 pixels
Display aspect ratio : 16:9
Frame rate mode : Constant
Frame rate : 23.976 (24000/1001) FPS
Color space : YUV
Chroma subsampling : 4:2:0
Bit depth : 8 bits
Scan type : Progressive
Bits/(Pixel*Frame) : 0.270
Stream size : 10.3 GiB (79%)
Title : WEB-DL 1080p
Language : English
Default : Yes
Forced : No
Color range : Limited
Color primaries : BT.709
Transfer characteristics : BT.709
Matrix coefficients : BT.709

Audio #1
ID : 2
Format : AC-3
Format/Info : Audio Coding 3
Commercial name : Dolby Digital
Codec ID : A_AC3
Duration : 1 h 50 min
Bit rate mode : Constant
Bit rate : 384 kb/s
Channel(s) : 6 channels
Channel layout : L R C LFE Ls Rs
Sampling rate : 48.0 kHz
Frame rate : 31.250 FPS (1536 SPF)
Compression mode : Lossy
Stream size : 303 MiB (2%)
Title : Русский (Dub, Пифагор) | AC3 5.1 @ 384 kbps
Language : Russian
Service kind : Complete Main
Default : Yes
Forced : No

Audio #2
ID : 3
Format : AC-3
Format/Info : Audio Coding 3
Commercial name : Dolby Digital
Codec ID : A_AC3
Duration : 1 h 50 min
Bit rate mode : Constant
Bit rate : 192 kb/s
Channel(s) : 2 channels
Channel layout : L R
Sampling rate : 48.0 kHz
Frame rate : 31.250 FPS (1536 SPF)
Compression mode : Lossy
Stream size : 152 MiB (1%)
Title : Русский (MVO, ОРТ, 1 вариант) | AC3 2.0 @ 192 kbps
Language : Russian
Service kind : Complete Main
Default : No
Forced : No

Audio #3
ID : 4
Format : AC-3
Format/Info : Audio Coding 3
Commercial name : Dolby Digital
Codec ID : A_AC3
Duration : 1 h 50 min
Bit rate mode : Constant
Bit rate : 448 kb/s
Channel(s) : 6 channels
Channel layout : L R C LFE Ls Rs
Sampling rate : 48.0 kHz
Frame rate : 31.250 FPS (1536 SPF)
Compression mode : Lossy
Stream size : 354 MiB (3%)
Title : Русский (MVO, ОРТ, 2 вариант) | AC3 5.1 @ 448 kbps
Language : Russian
Service kind : Complete Main
Default : No
Forced : No

Audio #4
ID : 5
Format : AC-3
Format/Info : Audio Coding 3
Commercial name : Dolby Digital
Codec ID : A_AC3
Duration : 1 h 50 min
Bit rate mode : Constant
Bit rate : 192 kb/s
Channel(s) : 2 channels
Channel layout : L R
Sampling rate : 48.0 kHz
Frame rate : 31.250 FPS (1536 SPF)
Compression mode : Lossy
Stream size : 152 MiB (1%)
Title : Русский (MVO, СТС) | AC3 2.0 @ 192 kbps
Language : Russian
Service kind : Complete Main
Default : No
Forced : No

Audio #5
ID : 6
Format : AC-3
Format/Info : Audio Coding 3
Commercial name : Dolby Digital
Codec ID : A_AC3
Duration : 1 h 50 min
Bit rate mode : Constant
Bit rate : 192 kb/s
Channel(s) : 2 channels
Channel layout : L R
Sampling rate : 48.0 kHz
Frame rate : 31.250 FPS (1536 SPF)
Compression mode : Lossy
Stream size : 152 MiB (1%)
Title : Русский (MVO, Премьер Видео) | AC3 2.0 @ 192 kbps
Language : Russian
Service kind : Complete Main
Default : No
Forced : No

Audio #6
ID : 7
Format : AC-3
Format/Info : Audio Coding 3
Commercial name : Dolby Digital
Codec ID : A_AC3
Duration : 1 h 50 min
Bit rate mode : Constant
Bit rate : 640 kb/s
Channel(s) : 6 channels
Channel layout : L R C LFE Ls Rs
Sampling rate : 48.0 kHz
Frame rate : 31.250 FPS (1536 SPF)
Compression mode : Lossy
Stream size : 506 MiB (4%)
Title : Русский (AVO, В. Королев) | AC3 5.1 @ 640 kbps
Language : Russian
Service kind : Complete Main
Default : No
Forced : No

Audio #7
ID : 8
Format : DTS
Format/Info : Digital Theater Systems
Codec ID : A_DTS
Duration : 1 h 50 min
Bit rate mode : Constant
Bit rate : 1 509 kb/s
Channel(s) : 6 channels
Channel layout : C L R Ls Rs LFE
Sampling rate : 48.0 kHz
Frame rate : 93.750 FPS (512 SPF)
Bit depth : 24 bits
Compression mode : Lossy
Stream size : 1.16 GiB (9%)
Title : Original (English) | DTS 5.1 @ 1509 kbps
Language : English
Default : No
Forced : No

Text #1
ID : 9
Format : UTF-8
Codec ID : S_TEXT/UTF8
Codec ID/Info : UTF-8 Plain Text
Duration : 14 min 20 s
Bit rate : 0 b/s
Count of elements : 4
Stream size : 76.0 Bytes (0%)
Title : Русский (Forced)
Language : Russian
Default : Yes
Forced : Yes

Text #2
ID : 10
Format : UTF-8
Codec ID : S_TEXT/UTF8
Codec ID/Info : UTF-8 Plain Text
Duration : 1 h 38 min
Bit rate : 32 b/s
Count of elements : 450
Stream size : 23.6 KiB (0%)
Title : Русский (Перевод баттлов)
Language : Russian
Default : No
Forced : No

Text #3
ID : 11
Format : UTF-8
Codec ID : S_TEXT/UTF8
Codec ID/Info : UTF-8 Plain Text
Duration : 1 h 40 min
Bit rate : 33 b/s
Count of elements : 318
Stream size : 24.4 KiB (0%)
Title : Русский (Перевод рэпа и баттлов)
Language : Russian
Default : No
Forced : No

Text #4
ID : 12
Format : UTF-8
Codec ID : S_TEXT/UTF8
Codec ID/Info : UTF-8 Plain Text
Duration : 1 h 42 min
Bit rate : 97 b/s
Count of elements : 1478
Stream size : 73.7 KiB (0%)
Title : Русский (Full)
Language : Russian
Default : No
Forced : No

Text #5
ID : 13
Format : UTF-8
Codec ID : S_TEXT/UTF8
Codec ID/Info : UTF-8 Plain Text
Duration : 1 h 43 min
Bit rate : 63 b/s
Count of elements : 1490
Stream size : 48.3 KiB (0%)
Title : English (Full)
Language : English
Default : No
Forced : No

Text #6
ID : 14
Format : UTF-8
Codec ID : S_TEXT/UTF8
Codec ID/Info : UTF-8 Plain Text
Duration : 1 h 48 min
Bit rate : 76 b/s
Count of elements : 1709
Stream size : 60.7 KiB (0%)
Title : English (SDH)
Language : English
Default : No
Forced : No

Menu
00:00:00.000 : en:Preparing for Battle (Main Titles)
00:03:11.942 : en:The Shelter
00:10:07.899 : en:8 Mile Road
00:14:51.724 : en:The Franchise
00:19:51.357 : en:Sweet Home Alabama
00:23:31.035 : en:Saturday Night in the D
00:27:20.889 : en:The Chin Tiki
00:34:40.870 : en:Alex
00:38:59.796 : en:Burn It Down
00:46:49.390 : en:I Got Your Back
00:52:54.338 : en:The Lunch Truck
01:01:47.871 : en:This Ain't My Home
01:06:02.417 : en:Eviction Situation
01:11:44.133 : en:Domestic Disturbance
01:13:47.965 : en:Wjlb (313 Baby, Love)
01:16:44.934 : en:Papa Doc Payback
01:24:30.732 : en:The Cripple Convention
01:27:56.438 : en:Rabbit Finds His Voice
01:38:19.143 : en:Final Face-Off
01:43:30.538 : en:Where We Goin'
01:45:29.114 : en:Loose Yourself (End Titles)
скриншот   скриншот   скриншот  
pb.wtf



Скачать 8 миля через торрент https://i112.fastpic.ru/big/2020/0910/0a/28ead7e590f48d50e0ef178d85b5e90a.jpg Скачать фильм 8 миля через торрент бесплантно в хорошем качестве Описание: Детройт, 1995 год. Блестящая и многообещающая политика индустриального развития города терпит крах и приводит к хаосу и ... 10 10 4
Торрент: Зарегистрирован [2020-09-10 08:37] · скачан: 60 раз
Статус: √ проверено
Размер: 13.09 GB
Как cкачать? Как скачать 8 миля через торрент | qTorrent

% Раздел Тема Автор DL S | L
Фильмы [HD 720p, 1080p] (Хороший звук DUB, MVO) [ 10.19 GB ] 8 миля / 8 Mile [2002 музыка BDRip 1080p] Anonymous Скачать
1 | 0
T Релизы по Парсеру [Игры, Сериалы и Фильмы и другое...] [ 1.46 GB ] Восьмая миля / 8 Миля / 8 Mile [2002 музыка BDRip] Dub + Sub sanekbest1 Скачать
2 | 0
Фильмы [HD 720p, 1080p] (Хороший звук DUB, MVO) [ 3.98 GB ] 8 миля / 8 Mile [2002 музыка BDRip 720p от Leonardo] DUB Ворон Скачать
1 | 0
Фильмы 2001-2005 [ 2.91 GB ] 8 миля / 8 Mile [2002 музыка HDRip-AVC + Оригинал + Любительский без цензуры] от R.G. PiratFilms White Smoke Скачать
1 | 0
Фильмы 2001-2005 [ 1.97 GB ] 8 миля / 8 Mile [2002 музыка HDTVRip] muschenko Скачать
1 | 0
Фильмы 2001-2005 [ 3.24 GB ] 8 миля / 8 Mile [2002 музыка BDRip] F.U. Скачать
1 | 0
Фильмы 2001-2005 [ 2.18 GB ] 8 миля / 8 Mile [2002 музыка BDRip] ACFIORENTINA Скачать
1 | 0

28-11-2019 20:33  

Отключить всю рекламу на сайте

    Дорогой пользователь! Огромная просьба, поблагодарите релизера, оцените раздачу и оставьте свои комментарий, если Вы скачали 8 миля через торрент бесплатно! Внесите свою лепту в развитие PiratBit!
    Комментировать посты могут только пользователи прошедшие не сложную регистрацию
    Показать сообщения:    

    8 миля через торрент
    Скачать бесплатно 8 миля
    8 миля скачать торрент
    8 миля смотреть онлайн
    Cкачать фильм 8 миля бесплатно
    8 миля скачать торрент в хорошем качестве
    8 миля смотреть онлайн бесплатно в хорошем качестве


    Вы не можете начинать темы
    Вы не можете отвечать на сообщения
    Вы не можете редактировать свои сообщения
    Вы не можете удалять свои сообщения
    Вы не можете голосовать в опросах
    Вы не можете прикреплять файлы к сообщениям
    Вы можете скачивать файлы