Ссылка на приватное зеркало нашего сайта всего за 1$. Внимание количество ограничено!!!

2 сезон

iTunes

1 сезон

1

2 сезон

2 сезон

iTunes

1 сезон

RePack

30

Ultimate

ВАЖНО

ИГРА 18+

pack

RePack

MK11
pack

Забери бонус

RePack

jed

!!Акция!!

Alien_Rage

RePack

fifa19

RePack

Assassins Creed: Odyssey

RePack

NEED FOR SPEED™ PAYBACK

4 сезон

9 сезон

Бесстыжие 9 сезон

Все сериалы

все сериалы на PB.wtf

RePack

FAR CRY 5
  

Кикбоксер 2: Дорога назад / Kickboxer 2: The Road Back (Альберт Пьюн) [1990 г., Боевик, WEB-DLRip 720p / 60 FPS, Авторский (одноголосый)] от R.G. HD-Films pb.wtf

Кикбоксер 2: Дорога назад через торрент pb.wtf

Размер: 3.59 GB | Добавлен: 2 мес. 17 д. назад | Торрент скачан:7 раз
Скачать  

10-09-2020 15:29 Кикбоксер 2: Дорога назад Скачать торрент  

Кикбоксер 2: Дорога назад / Kickboxer 2: The Road Back
Год выпуска: 1990
Страна: США
Жанр: Боевик
Продолжительность: 01:30:43
Перевод: Авторский (одноголосый) ( А.Гаврилов )

Режиссер: Альберт Пьюн

Премьера в мире: 1 февраля 1991

rating

В ролях: Саша Митчелл, Питер Бойл, Деннис Чан, Кэри-Хироюки Тагава, Джон Дил, Мишель Кисси, Хизер МакКомб, Маттиас Хьюз

Описание: Дэвид Слоан — младший брат кикбоксеров Курта и Эрика Слоанов, героев первой части фильма. Дэвид преподает боевые искусства, но выходить на ринг за деньги отказывается.
Однако столкнувшись с финансовыми трудностями, ему приходится провести бой с лучшим учеником жестокой школы Масиа … и выиграть! Став чемпионом, он собирается уйти из этого спорта, окончательно в нем разочаровавшись. Но оказывается, что завязать с боями без правил так же сложно, как уйти из мафии — мало шансов остаться в живых.


Качество: WEB-DLRip 720p / 60 FPS
Формат: MKV
Видео кодек: H.264
Аудио кодек: AC3
Видео: x264, 1280 x 720 ( 16:9 ), 5474 kbps, 60,000 fps, ( 0.099 bpp)
Аудио#1: Русский, AC-3, 48.0 KHz, 2 ch, 192 Kbps AVO ( А.Гаврилов )
Релиз от:

скриншот   скриншот   скриншот   скриншот   скриншот   скриншот  Автор рипа: slaventi-69
x264 [info]: frame I:1319 Avg QP:14.04 size: 79134
x264 [info]: frame P:76219 Avg QP:15.10 size: 26508
x264 [info]: frame B:248730 Avg QP:17.94 size: 6417
x264 [info]: consecutive B-frames: 1.7% 2.1% 9.7% 15.2% 64.0% 7.4%


Общее
Уникальный идентификатор : 253332369931828670580569130873058473317 (0xBE960A2AA8C83FE0BE0310EA18ABB565)
Полное имя : F:\Kickboxer.2_The.Road.Back.(1990).WEB-DLRip.720p.(60 Fps).mkv
Формат : Matroska
Версия формата : Version 4
Размер файла : 3,59 Гбайт
Продолжительность : 1 ч. 30 м.
Общий поток : 5670 Кбит/сек
Название фильма : Кикбоксер 2: Дорога назад / Kickboxer 2: The Road Back (1990) WEB-DLRip 720p (60 Fps)
Дата кодирования : UTC 2020-09-09 14:59:20
Программа кодирования : mkvmerge v9.1.0 ('Little Earthquakes') 64bit
Библиотека кодирования : libebml v1.3.3 + libmatroska v1.4.4

Видео
Идентификатор : 1
Формат : AVC
Формат/Информация : Advanced Video Codec
Профиль формата : High@L4.1
Настройки формата : CABAC / 9 Ref Frames
Параметр CABAC формата : Да
Параметр RefFrames формата : 9 кадров
Идентификатор кодека : V_MPEG4/ISO/AVC
Продолжительность : 1 ч. 30 м.
Битрейт : 5474 Кбит/сек
Ширина : 1280 пикселей
Высота : 720 пикселей
Соотношение сторон : 16:9
Режим частоты кадров : Постоянный
Частота кадров : 60,000 кадров/сек
Цветовое пространство : YUV
Субдискретизация насыщенности : 4:2:0
Битовая глубина : 8 бит
Тип развёртки : Прогрессивная
Бит/(Пиксели*Кадры) : 0.099
Размер потока : 3,47 Гбайт (97%)
Заголовок : slaventi-69 ( R.G. HD-Films | 60 fps )
Библиотека кодирования : x264 core 130 r2273 b3065e6
Настройки программы : cabac=1 / ref=9 / deblock=1:-1:-1 / analyse=0x3:0x113 / me=umh / subme=9 / psy=1 / psy_rd=1.00:0.00 / mixed_ref=1 / me_range=32 / chroma_me=1 / trellis=2 / 8x8dct=1 / cqm=0 / deadzone=21,11 / fast_pskip=1 / chroma_qp_offset=-2 / threads=10 / lookahead_threads=4 / sliced_threads=0 / nr=0 / decimate=1 / interlaced=0 / bluray_compat=0 / constrained_intra=0 / bframes=5 / b_pyramid=2 / b_adapt=2 / b_bias=0 / direct=1 / weightb=1 / open_gop=0 / weightp=2 / keyint=600 / keyint_min=60 / scenecut=40 / intra_refresh=0 / rc=crf / mbtree=0 / crf=16.2 / qcomp=0.60 / qpmin=0 / qpmax=69 / qpstep=4 / ip_ratio=1.40 / pb_ratio=1.30 / aq=1:1.00
Язык : English
Default : Да
Forced : Нет

Аудио
Идентификатор : 2
Формат : AC-3
Формат/Информация : Audio Coding 3
Коммерческое название : Dolby Digital
Идентификатор кодека : A_AC3
Продолжительность : 1 ч. 30 м.
Вид битрейта : Постоянный
Битрейт : 192 Кбит/сек
Каналы : 2 канала
Channel layout : L R
Частота : 48,0 КГц
Частота кадров : 31,250 кадров/сек (1536 SPF)
Битовая глубина : 16 бит
Метод сжатия : С потерями
Размер потока : 124 Мбайт (3%)
Заголовок : AVO ( А.Гаврилов )
Язык : Russian
ServiceKind/String : Complete Main
Default : Да
Forced : Нет

Просьба к переливающим на другие сайты, в оформлении указывайте пожалуйста авторство группы R.G. HD-Films pb.wtf



Скачать Кикбоксер 2: Дорога назад через торрент http://pic.kartinco.top/images/2018/3li4x.jpg Скачать фильм Кикбоксер 2: Дорога назад через торрент бесплантно в хорошем качестве Описание: Дэвид Слоан — младший брат кикбоксеров Курта и Эрика Слоанов, героев первой части фильма. Дэвид преподает боевые искусства, но ... 10 10 4
Info! Золотая раздача, скачанное не засчитывается.
Торрент: Зарегистрирован [2020-09-10 15:29] · скачан: 7 раз
Статус: √ проверено
Размер: 3.59 GB
Как cкачать? Как скачать Кикбоксер 2: Дорога назад через торрент | qTorrent

28-11-2019 20:33  

Отключить всю рекламу на сайте

10-09-2020 19:19 Кикбоксер 2: Дорога назад Скачать торрент  

поставьте золото фильм топpb.wtf



10-09-2020 19:37 Кикбоксер 2: Дорога назад Скачать торрент  

Большое спасибо за очередной боевик старой школы!!! Пересмотрим обязательно в таком качестве, но в коллекцию однозначно!!! Автору релиза МЕГАРЕСПЕКТ!!!pb.wtf



11-09-2020 14:17 Кикбоксер 2: Дорога назад Скачать торрент  

Ждем 3 часть ( там рассинхрон неудачный).pb.wtf



11-09-2020 18:51 Кикбоксер 2: Дорога назад Скачать торрент  

Ради такого дела можно и подождать.pb.wtf



    Дорогой пользователь! Огромная просьба, поблагодарите релизера, оцените раздачу и оставьте свои комментарий, если Вы скачали Кикбоксер 2: Дорога назад через торрент бесплатно! Внесите свою лепту в развитие PiratBit!
    Комментировать посты могут только пользователи прошедшие не сложную регистрацию
    Показать сообщения:    

    Кикбоксер 2: Дорога назад через торрент
    Скачать бесплатно Кикбоксер 2: Дорога назад
    Кикбоксер 2: Дорога назад скачать торрент
    Кикбоксер 2: Дорога назад смотреть онлайн
    Cкачать фильм Кикбоксер 2: Дорога назад бесплатно
    Кикбоксер 2: Дорога назад скачать торрент в хорошем качестве
    Кикбоксер 2: Дорога назад смотреть онлайн бесплатно в хорошем качестве


    Вы не можете начинать темы
    Вы не можете отвечать на сообщения
    Вы не можете редактировать свои сообщения
    Вы не можете удалять свои сообщения
    Вы не можете голосовать в опросах
    Вы не можете прикреплять файлы к сообщениям
    Вы можете скачивать файлы