2 сезон

iTunes

MVO

1

2 сезон

iTunes

iTunes

1 сезон

RePack

30

Ultimate

ВАЖНО

ИГРА 18+

pack

RePack

MK11
pack

Легкие деньги

RePack

jed

RePack

fifa19

RePack

RDR2

RePack

NEED FOR SPEED™ PAYBACK

4 сезон

9 сезон

Бесстыжие 9 сезон

Все сериалы

все сериалы на PB.wtf

RePack

FAR CRY 5

Anonymous, доброй ночи, мы не успеваем собрать деньги на оплату серверов за декабрь и январь, помогите нам пожалуйста в это трудное время. В качестве благодарности мы отключим Вам всю рекламу на сайте (укажите свой ник в строку Ваше имя)!

×
  
Magnet ссылка

Окончательный приговор / Ultimate Justice (Мартин Кристофер Боде) [2017, Боевик, триллер, WEB-DLRip-AVC] [MVO] [Creative Arts Media] | от Mediabit pb.wtf

Окончательный приговор через торрент pb.wtf

Размер: 750 MB | Добавлен: 4 мес. 9 д. назад | Торрент скачан:48 раз
Скачать  

10-09-2020 18:36 Окончательный приговор Скачать торрент  


Окончательный приговор / Ultimate Justice
Информация о фильме:
Название: Окончательный приговор
Оригинальное название: Ultimate Justice
Год выхода: 2017
Жанр: Боевик, триллер
Режиссер: Мартин Кристофер Боде

В ролях: Марк Дакаскос, Брэндон Ри, Маттиас Хьюз, Мике Мёллер, Майк Лидер, Вольфганг Рим, Мартин Баден

Описание: После распада группы крутых ребят, проходит 8 лет и одному из них нужна помощь: неизвестные нападают на семью одного из своих, тогда команда бывших элитных бойцов возвращается к работе и ввязывается в жестокую игру «убей или будь убитым», где на кону стоит жизнь и смерть.

rating

Страна: Германия
Студия: International Film Partners, Silent Partners
Продолжительность: 01:33:15
Перевод: Профессиональный (многоголосый, закадровый) - по заказу Creative Arts Media



Информация о файле:
Кодек: AVC
Формат: MKV
Качество: WEB-DLRip-AVC
Видео: MPEG-4 AVC, 720x304 (2.40:1), 1030 kbps, 23.976 fps, 0.196
Аудио RU: AAC-HE, 2 ch, 48 kHz, 96 kbps
Субтитры: Aнглийские



General
Unique ID : 216091346497580236782469788541488220137 (0xA291ADF3560CF8C0F3C3B2AAB9EC47E9)
Complete name : D:uTorrentРипы_от_wolf1245_MediaBitUltimate Justice 2017 from wolf1245 & MediaBit.mkv
Format : Matroska
Format version : Version 4
File size : 750 MiB
Duration : 1 h 33 min
Overall bit rate : 1 125 kb/s
Movie name : Ultimate Justice 2017 from wolf1245 & MediaBit
Encoded date : UTC 2020-09-10 18:11:00
Writing application : mkvmerge v50.0.0 ('Awakenings') 64-bit
Writing library : libebml v1.4.0 + libmatroska v1.6.2

Video
ID : 1
Format : AVC
Format/Info : Advanced Video Codec
Format profile : High@L4.1
Format settings : CABAC / 11 Ref Frames
Format settings, CABAC : Yes
Format settings, Reference frames : 11 frames
Codec ID : V_MPEG4/ISO/AVC
Duration : 1 h 33 min
Bit rate : 1 030 kb/s
Width : 720 pixels
Height : 304 pixels
Display aspect ratio : 2.40:1
Frame rate mode : Constant
Frame rate : 23.976 (24000/1001) FPS
Color space : YUV
Chroma subsampling : 4:2:0
Bit depth : 8 bits
Scan type : Progressive
Bits/(Pixel*Frame) : 0.196
Stream size : 685 MiB (91%)
Title : wolf1245 & MediaBit
Writing library : x264 core 157 r2958 57baac4
Encoding settings : cabac=1 / ref=11 / deblock=1:-3:-3 / analyse=0x3:0x133 / me=umh / subme=11 / psy=1 / psy_rd=0.98:0.07 / mixed_ref=1 / me_range=48 / chroma_me=1 / trellis=2 / 8x8dct=1 / cqm=0 / deadzone=21,11 / fast_pskip=0 / chroma_qp_offset=-3 / threads=10 / lookahead_threads=2 / sliced_threads=0 / nr=0 / decimate=0 / interlaced=0 / bluray_compat=0 / constrained_intra=0 / bframes=11 / b_pyramid=2 / b_adapt=2 / b_bias=0 / direct=3 / weightb=1 / open_gop=0 / weightp=2 / keyint=240 / keyint_min=24 / scenecut=40 / intra_refresh=0 / rc_lookahead=60 / rc=2pass / mbtree=0 / bitrate=1030 / ratetol=1.0 / qcomp=0.62 / qpmin=0 / qpmax=69 / qpstep=4 / cplxblur=20.0 / qblur=0.5 / vbv_maxrate=50000 / vbv_bufsize=62500 / nal_hrd=none / filler=0 / ip_ratio=1.40 / pb_ratio=1.30 / aq=1:1.00
Default : Yes
Forced : No
Color range : Limited
Color primaries : BT.709
Transfer characteristics : BT.709
Matrix coefficients : BT.709

Audio
ID : 2
Format : AAC LC SBR
Format/Info : Advanced Audio Codec Low Complexity with Spectral Band Replication
Commercial name : HE-AAC
Format settings : Implicit
Codec ID : A_AAC-2
Duration : 1 h 33 min
Bit rate : 96.0 kb/s
Channel(s) : 2 channels
Channel layout : L R
Sampling rate : 48.0 kHz
Frame rate : 23.438 FPS (2048 SPF)
Compression mode : Lossy
Stream size : 64.0 MiB (9%)
Title : MVO / Creative Arts Media
Language : Russian
Default : Yes
Forced : No

Text
ID : 3
Format : UTF-8
Codec ID : S_TEXT/UTF8
Codec ID/Info : UTF-8 Plain Text
Duration : 1 h 27 min
Bit rate : 35 b/s
Count of elements : 945
Stream size : 22.9 KiB (0%)
Language : English
Default : No
Forced : No
Релиз от: &
pb.wtf



Скачать Окончательный приговор через торрент https://c.radikal.ru/c05/2009/c4/ab0c53d368b6.jpg Скачать фильм Окончательный приговор через торрент бесплантно в хорошем качестве Описание: После распада группы крутых ребят, проходит 8 лет и одному из них нужна помощь: неизвестные нападают на семью одного из своих, ... 10 10 2
Торрент: Зарегистрирован [2020-09-10 18:36] · скачан: 48 раз
Статус: √ проверено
Размер: 750 MB
Как cкачать? Как скачать Окончательный приговор через торрент | UTorrent

28-11-2019 20:33  

Отключить всю рекламу на сайте

    Дорогой пользователь! Огромная просьба, поблагодарите релизера, оцените раздачу и оставьте свои комментарий, если Вы скачали Окончательный приговор через торрент бесплатно! Внесите свою лепту в развитие PiratBit!
    Комментировать посты могут только пользователи прошедшие не сложную регистрацию
    Показать сообщения:    

    Окончательный приговор через торрент
    Скачать бесплатно Окончательный приговор
    Окончательный приговор скачать торрент
    Окончательный приговор смотреть онлайн
    Cкачать фильм Окончательный приговор бесплатно
    Окончательный приговор скачать торрент в хорошем качестве
    Окончательный приговор смотреть онлайн бесплатно в хорошем качестве


    Вы не можете начинать темы
    Вы не можете отвечать на сообщения
    Вы не можете редактировать свои сообщения
    Вы не можете удалять свои сообщения
    Вы не можете голосовать в опросах
    Вы не можете прикреплять файлы к сообщениям
    Вы можете скачивать файлы