Всегда рабочее зеркало без VPN и Proxy просто перед .vidak.icu напиши любое слово или цифру, Пример http://5ub.vidak.icu

>

7.4

iTunes

7.4

2 сезон

6.6

iTunes

1

7.4

2 сезон

7.2

iTunes

6.0

MVO

13

6.1

iTunes

8.3

Пиратка

30

ULTIMATE

pack

9.9

Лицензия

ВАЖНО

ИГРА 18+

pack

7.3

RePack

MK11

7.7

RePack

jed

7.8

RePack

fifa19

8.5

RePack

RDR2

RePack

NEED FOR SPEED™ PAYBACK

1 сезон

9 сезон

Бесстыжие 9 сезон

Все сериалы

все сериалы на PB.wtf

RePack

FAR CRY 5

Anonymous, добрый день, мы катастрофически не успеваем собрать деньги на оплату серверов, помогите нам пожалуйста 5,10,15р., для нас важна любая помощь . В качестве благодарности мы отключим Вам всю рекламу на сайте (укажите свой ник в строку Ваше имя)!

×
  
Magnet ссылка

Мулан / Mulan (Ники Каро) [2020 г., Боевик, фэнтези, драма, WEB-DL 1080p] [AVO] [Есарев] - ExKinoRay pb.wtf

Мулан через торрент pb.wtf

Раздают: 8 [ 0 KB/s ]
Размер: 7.54 GB | Добавлен: 1 год 4 мес. назад | Торрент скачан:253 раза
Смотреть онлайн Мулан | Скачать    Ребята, помогите собрать деньги на оплату серверов!!!

10-09-2020 21:47 Мулан Скачать торрент  

Название: Мулан
Оригинальное название: Mulan
Год выхода: 2020
Жанр: Драма, боевик, фэнтези
Режиссер: Ники Каро
В ролях: Ифэй Лю, Донни Йен, Гун Ли, Джет Ли, Джейсон Скотт Ли, Йосон Ань, Ци Ма, Розалинд Чао, Чжэн Пэйпэй, Сюзанна Тан

О фильме: Изданный императором Китая указ о призыве на службу в армии одного мужчины из каждой семьи для защиты страны от северных захватчиков вдохновляет Мулан, старшую дочь почетного воина, занять в войсках место больного отца. Маскируясь под мужчину, девушка подвергается испытаниям на каждом шагу, проявляя свои внутреннюю силу и истинный потенциал. Мулан ждет эпичное путешествие, которое превратит её в доблестного воина, позволит заслужить уважение народа и стать гордостью отца.

rating

Страна: США, Китай, Канада
Студия: Walt Disney Pictures, Jason T. Reed Productions, Good Fear Content
Продолжительность: 01:55:08
Перевод: Авторский (закадровый) | Д.Есарев

Формат: MKV
Качество: WEB-DL 1080p
Видео: MPEG-4 AVC, 1920x1080 (16:9), 23.976 fps, 8291 Kbps, 0.167 bit/pixel
Аудио #01: 48 kHz, AC3, 5.1, 448 Kbps | Есарев | RUS |
Аудио #03: 48 kHz, AC3, 5.1, 448 Kbps | Оригинал | ENG |
Субтитры: Русские (Focs), английские
General
Unique ID : 251987656318353425301614612440157958273 (0xBD930EAAAF61669DAAF85551A35AB081)
Complete name : G:\Mulan.2020.Esarev.WEB-DL.1080p.ExKinoRay.mkv
Format : Matroska
Format version : Version 2
File size : 7.54 GiB
Duration : 1 h 55 min
Overall bit rate mode : Variable
Overall bit rate : 9 381 kb/s
Movie name : Mulan 2020 from ExKinoRay
Encoded date : UTC 2020-09-10 20:57:47
Writing application : mkvmerge v5.6.0 ('Kenya Kane') built on May 27 2012 16:44:04
Writing library : libebml v1.2.3 + libmatroska v1.3.0

Video
ID : 1
Format : AVC
Format/Info : Advanced Video Codec
Format profile : High@L4
Format settings, CABAC : Yes
Format settings, ReFrames : 4 frames
Codec ID : V_MPEG4/ISO/AVC
Duration : 1 h 55 min
Bit rate mode : Variable
Bit rate : 8 298 kb/s
Maximum bit rate : 12.7 Mb/s
Width : 1 920 pixels
Height : 1 080 pixels
Display aspect ratio : 16:9
Frame rate mode : Constant
Frame rate : 23.976 (24000/1001) FPS
Color space : YUV
Chroma subsampling : 4:2:0
Bit depth : 8 bits
Scan type : Progressive
Bits/(Pixel*Frame) : 0.167
Stream size : 6.67 GiB (88%)
Language : English
Default : Yes
Forced : No
Color range : Limited
Color primaries : BT.709
Transfer characteristics : BT.709
Matrix coefficients : BT.709

Audio #1
ID : 2
Format : AC-3
Format/Info : Audio Coding 3
Mode extension : CM (complete main)
Format settings, Endianness : Big
Codec ID : A_AC3
Duration : 1 h 55 min
Bit rate mode : Constant
Bit rate : 448 kb/s
Channel(s) : 6 channels
Channel positions : Front: L C R, Side: L R, LFE
Sampling rate : 48.0 kHz
Frame rate : 31.250 FPS (1536 spf)
Compression mode : Lossy
Stream size : 369 MiB (5%)
Title : AVO (Esarev)
Language : Russian
Default : Yes
Forced : No

Audio #2
ID : 3
Format : AC-3
Format/Info : Audio Coding 3
Mode extension : CM (complete main)
Format settings, Endianness : Big
Codec ID : A_AC3
Duration : 1 h 55 min
Bit rate mode : Constant
Bit rate : 448 kb/s
Channel(s) : 6 channels
Channel positions : Front: L C R, Side: L R, LFE
Sampling rate : 48.0 kHz
Frame rate : 31.250 FPS (1536 spf)
Compression mode : Lossy
Stream size : 369 MiB (5%)
Language : English
Default : No
Forced : No

Text #1
ID : 4
Format : UTF-8
Codec ID : S_TEXT/UTF8
Codec ID/Info : UTF-8 Plain Text
Title : Full (Focs)
Language : Russian
Default : No
Forced : No

Text #2
ID : 5
Format : UTF-8
Codec ID : S_TEXT/UTF8
Codec ID/Info : UTF-8 Plain Text
Language : English
Default : No
Forced : No


Релиз от:

Автор релиза: pb.wtf



Скачать Мулан через торрент http://a.radikal.ru/a29/2009/72/7af7f524736a.jpg Скачать, смотреть онлайн Мулан бесплантно в хорошем качестве О фильме: Изданный императором Китая указ о призыве на службу в армии одного мужчины из каждой семьи для защиты страны от северных ... 10 10 8
Info! Золотая раздача, скачанное не засчитывается.
Торрент: Зарегистрирован [2020-09-10 21:47] · скачан: 253 раз
Статус: √ проверено
Размер: 7.54 GB
Как cкачать? Как скачать Мулан через торрент | UTorrent

% Раздел Тема Автор DL S | L
Фильмы 2019-2020 [DVDrip, WEB-DLRip, HDrip] (DUB, MVO) [ 2.65 GB ] Мулан / Mulan [2020 BDRip-AVC] [MVO] [HDrezka Studio FocusX] AVO - ExKinoRay Enigma2010 Скачать
6 | 0
Фильмы 2019-2020 [DVDrip, WEB-DLRip, HDrip] (DUB, MVO) [ 2.58 GB ] Мулан / Mulan [2020 WEB-DLRip-AVC] [MVO] [FocusX IdeaFilm] - ExKinoRay Enigma2010 Скачать
23 | 0
Фильмы (WEB-DL 720p, 1080p) [ 7.85 GB ] Мулан / Mulan [2020 WEB-DL 1080p] [MVO] [FocusX IdeaFilm] - ExKinoRay Enigma2010 Скачать
2 | 0

28-11-2019 20:33  

Отключить всю рекламу на сайте

    Дорогой пользователь! Огромная просьба, поблагодарите релизера, оцените раздачу и оставьте свои комментарий, если Вы скачали Мулан через торрент бесплатно!
    Комментировать посты могут только пользователи прошедшие не сложную регистрацию
    Показать сообщения:    

    Мулан через торрент
    Скачать бесплатно Мулан
    Мулан скачать торрент
    Мулан смотреть онлайн
    Cкачать фильм Мулан бесплатно
    Мулан скачать торрент в хорошем качестве
    Мулан смотреть онлайн бесплатно в хорошем качестве


    Вы не можете начинать темы
    Вы не можете отвечать на сообщения
    Вы не можете редактировать свои сообщения
    Вы не можете удалять свои сообщения
    Вы не можете голосовать в опросах
    Вы не можете прикреплять файлы к сообщениям
    Вы можете скачивать файлы