Ссылка на приватное зеркало нашего сайта всего за 1$. Внимание количество ограничено!!!

2 сезон

iTunes

1 сезон

1

2 сезон

2 сезон

iTunes

1 сезон

RePack

30

Новинка

ВАЖНО

ИГРА 18+

pack

RePack

MK11
pack

Забери бонус

RePack

jed

!!Акция!!

Alien_Rage

RePack

fifa19

RePack

Assassins Creed: Odyssey

RePack

NEED FOR SPEED™ PAYBACK

4 сезон

9 сезон

Бесстыжие 9 сезон

Все сериалы

все сериалы на PB.wtf

RePack

FAR CRY 5
  

Пятый элемент / The Fifth Element (Люк Бессон) [1997, Фантастика, боевик, комедия, приключения, триллер, UHD BDRemux 2160p, (Dolby Vision TV)] DUB [Лицензия BD-RUS - "Амальгама"] pb.wtf

Пятый элемент через торрент pb.wtf

Размер: 70.5 GB | Добавлен: 2 мес. 15 д. назад | Торрент скачан:21 раз
Скачать  

11-09-2020 13:12 Пятый элемент Скачать торрент  

Пятый элемент | The Fifth Element
Год выпуска: 1997
Страна: Франция
Студия: Gaumont
Жанр: Фантастика, боевик, комедия, приключения, триллер
Продолжительность: 02:05:53
Перевод: Дублированный | (Лицензия BD-RUS - "Амальгама")
Субтитры: отсутствуют

Режиссер: Люк Бессон

rating

В ролях:

Брюс Уиллис (Korben Dallas), Милла Йовович (Leeloo), Гари Олдман (Zorg), Иэн Холм (Cornelius), Крис Такер (Ruby Rhod), Люк Перри (Billy), Брайон Джеймс (General Munro), Том ’Тайни’ Листер мл. (President Lindberg), Ли Эванс (Fog), Чарли Крид-Майлз (David), Tricky (Right Arm), Джон Невилл (General Staedert)
Описание: Каждые пять тысяч лет открываются двери между измерениями и темные силы стремятся нарушить существующую гармонию. Каждые пять тысяч лет Вселенной нужен герой, способный противостоять этому злу. XXIII век. Нью-йоркский таксист Корбен Даллас должен решить глобальную задачу — спасение всего рода человеческого. Зло в виде раскаленной массы, наделенной интеллектом, надвигается на Землю. Победить его можно, только лишь собрав воедино четыре элемента (они же стихии — земля, вода, воздух и огонь) и добавив к ним загадочный пятый элемент.

Качество: UHD BDRemux 2160p | Dolby Vision TV
Формат: MP4

Видео: MPEG-H HEVC HDR Video, 3840x2160, 78.9 Mbit/s, 24.000 fps
Аудио: 48 kHz, AC3, 5.1, 640 Kbps | Дублированный | RUS |
Данный вид релизов (контейнер MP4) предназначен для встроенного в ТВ (соответственно, с поддержкой DV) плеер.
Т.Е. Можно использовать как USB flash/HDD, так и DLNA / Plex - подобные сервисы/программы. дополнительный-внешний плеер не обязателен.

Внимание!
На моделях LG 2016 возможны сюрпризы "через раз", 2017-2018 должно идти без сюрпризов )
скриншот  скриншот  скриншот  скриншот  скриншот  

Общее
Полное имя : D:\The.Fifth.Element.1997.BDREMUX.2160.DV_TV.seleZen.mp4
Формат : MPEG-4
Профиль формата : Base Media / Version 2
Идентификатор кодека : mp42 (mp42/dby1/isom)
Размер файла : 70,5 Гбайт
Продолжительность : 2 ч. 6 м.
Общий поток : 79,7 Мбит/сек
Дата кодирования : UTC 2020-09-10 12:13:22
Дата пометки : UTC 2020-09-10 12:13:22

Видео #1
Идентификатор : 1
Формат : HEVC
Формат/Информация : High Efficiency Video Coding
Идентификатор кодека : hev1
Идентификатор кодека/Информация : High Efficiency Video Coding
Продолжительность : 2 ч. 6 м.
Битрейт : 78,9 Мбит/сек
Ширина : 3840 пикселей
Высота : 2160 пикселей
Соотношение сторон : 16:9
Режим частоты кадров : Постоянный
Частота кадров : 24,000 кадра/сек
Бит/(Пиксели*Кадры) : 0.396
Размер потока : 69,9 Гбайт (99%)
Default : Нет
Дата кодирования : UTC 2020-09-10 12:13:22
Дата пометки : UTC 2020-09-10 12:13:22

Видео #2
Идентификатор : 2
Формат : HEVC
Формат/Информация : High Efficiency Video Coding
Идентификатор кодека : dvhe
Продолжительность : 2 ч. 6 м.
Битрейт : 31,0 Кбит/сек
Ширина : 1920 пикселей
Высота : 1080 пикселей
Соотношение сторон : 16:9
Режим частоты кадров : Постоянный
Частота кадров : 24,000 кадра/сек
Бит/(Пиксели*Кадры) : 0.001
Размер потока : 28,1 Мбайт (0%)
Default : Нет
Дата кодирования : UTC 2020-09-10 12:13:22
Дата пометки : UTC 2020-09-10 12:13:22

pb.wtf



Скачать Пятый элемент через торрент http://i066.radikal.ru/1710/c1/684e456ab8a1.jpg Скачать фильм Пятый элемент через торрент бесплантно в хорошем качестве Описание: Каждые пять тысяч лет открываются двери между измерениями и темные силы стремятся нарушить существующую гармонию. Каждые пять ... 9.8 10 5
Info! Золотая раздача, скачанное не засчитывается.
Торрент: Зарегистрирован [2020-09-11 13:12] · скачан: 21 раз
Статус: √ проверено
Размер: 70.5 GB
Как cкачать? Как скачать Пятый элемент через торрент | qTorrent

% Раздел Тема Автор DL S | L
Ultra HD (UHD: 2K, 4K, 8K) — видео сверхвысокой чёткости [ 78.9 GB ] Пятый элемент / The Fifth Element [1997 UHD BDRemux 2160p ] 2xDUB bober100 Скачать
1 | 0
Ultra HD (UHD: 2K, 4K, 8K) — видео сверхвысокой чёткости [ 39.53 GB ] Пятый элемент / The Fifth Element [1997 UHD BDRip 2160p] 2xDUB + MVO + DVO + 3xAVO + 3xMVO sheker187 Скачать
1 | 0
Ultra HD (UHD: 2K, 4K, 8K) — видео сверхвысокой чёткости [ 51.61 GB ] Пятый элемент / The Fifth Element [1997 UHD BDRemux 2160p] 2xDUB bober100 Скачать
3 | 0
Ultra HD (UHD: 2K, 4K, 8K) — видео сверхвысокой чёткости [ 58.13 GB ] Пятый элемент / The Fifth Element [1997 UHDWEBRip 2160p] [4K Remastered] 2xDUB+MVO+DVO+3xAVO bober100 Скачать
2 | 0
Фильмы до 2000 г. [ 1.47 GB ] Пятый элемент / The Fifth Element [1997 BDRip] Dub Ворон Скачать
1 | 0

28-11-2019 20:33  

Отключить всю рекламу на сайте

    Дорогой пользователь! Огромная просьба, поблагодарите релизера, оцените раздачу и оставьте свои комментарий, если Вы скачали Пятый элемент через торрент бесплатно! Внесите свою лепту в развитие PiratBit!
    Комментировать посты могут только пользователи прошедшие не сложную регистрацию
    Показать сообщения:    

    Пятый элемент через торрент
    Скачать бесплатно Пятый элемент
    Пятый элемент скачать торрент
    Пятый элемент смотреть онлайн
    Cкачать фильм Пятый элемент бесплатно
    Пятый элемент скачать торрент в хорошем качестве
    Пятый элемент смотреть онлайн бесплатно в хорошем качестве


    Вы не можете начинать темы
    Вы не можете отвечать на сообщения
    Вы не можете редактировать свои сообщения
    Вы не можете удалять свои сообщения
    Вы не можете голосовать в опросах
    Вы не можете прикреплять файлы к сообщениям
    Вы можете скачивать файлы