2 сезон

iTunes

MVO

1

2 сезон

iTunes

iTunes

1 сезон

RePack

30

Новинка

ВАЖНО

ИГРА 18+

pack

RePack

MK11
pack

Легкие деньги

RePack

jed

RePack

fifa19

RePack

RDR2

RePack

NEED FOR SPEED™ PAYBACK

4 сезон

9 сезон

Бесстыжие 9 сезон

Все сериалы

все сериалы на PB.wtf

RePack

FAR CRY 5

Anonymous, доброй ночи, мы не успеваем собрать деньги на оплату серверов за декабрь и январь, помогите нам пожалуйста в это трудное время. В качестве благодарности мы отключим Вам всю рекламу на сайте (укажите свой ник в строку Ваше имя)!

×
  
Magnet ссылка

Подвал / The Basement (Брайан М. Конли, Нэйтан Айвз) [2018, ужасы, HDRip-AVC] [MVO] [HDRezka Studio] от MediaBit pb.wtf

Подвал через торрент pb.wtf

Размер: 1.65 GB | Добавлен: 4 мес. 3 д. назад | Торрент скачан:69 раз
Скачать  

12-09-2020 14:06 Подвал Скачать торрент  


Подвал / The Basement
Информация о фильме:
Название: Подвал
Оригинальное название: The Basement
Год выхода: 2018
Жанр: Ужасы
Режиссер: Брайан М. Конли, Нэйтан Айвз

В ролях: Миша Бартон, Трэйси Томс, Бэйли Энн Бордерс, Джефф Дэвис, Карим Дж. Граймс, Джессика Соннеборн, Мария Волк, Сара Никлин, Памела Уистром, Кейлб Лонг

Описание: Музыкант Крейг Оуэн оказывается похищен и просыпается в подвале. Его похититель, известный как «Близнецы», – извращенный серийный убийца, который пытает и убивает несчастных жертв в подвале собственного дома в Сан-Фернандо. Двенадцать личностей меняются в одном человеке, чтобы каждая могла принять участие в ужасающих пытках, превращающих жизнь музыканта в настоящий ад. И теперь мужчине предстоит найти путь к пониманию психологического отклонения убийцы, чтобы спасти свою жизнь. В то время как жена Крейга пытается понять, что произошло с ее мужем, и предпринимает попытки найти его.

rating

Страна: США
Студия: The Conley Company
Продолжительность: 01:28:32
Перевод: Профессиональный (многоголосый, закадровый) - HDRezka Studio



Информация о файле:
Кодек: AVC
Формат: MKV
Качество: HDRip-AVC
Видео: MPEG-4 AVC, 1024х428 (2.40:1), 2 222 kb/s, 0.211
Аудио RU: AC3, 6 ch, 48 kHz, 448 kbps
Навигация по главам: Да

General
Unique ID : 211365013845070315262975458331758497519 (0x9F036BC27644704FD563A2E08AE10EEF)
Complete name : D:uTorrentThe Basement.2018.HDRip-AVC from wolf1245 & MediaBit.mkv
Format : Matroska
Format version : Version 4
File size : 1.65 GiB
Duration : 1 h 28 min
Overall bit rate : 2 669 kb/s
Movie name : The Basement.2018.HDRip-AVC from wolf1245 & MediaBit
Encoded date : UTC 2020-09-12 13:35:31
Writing application : mkvmerge v50.0.0 ('Awakenings') 64-bit
Writing library : libebml v1.4.0 + libmatroska v1.6.2

Video
ID : 1
Format : AVC
Format/Info : Advanced Video Codec
Format profile : High@L4.1
Format settings : CABAC / 11 Ref Frames
Format settings, CABAC : Yes
Format settings, Reference frames : 11 frames
Codec ID : V_MPEG4/ISO/AVC
Duration : 1 h 28 min
Bit rate : 2 222 kb/s
Width : 1 024 pixels
Height : 428 pixels
Display aspect ratio : 2.40:1
Frame rate mode : Constant
Frame rate : 23.976 (24000/1001) FPS
Color space : YUV
Chroma subsampling : 4:2:0
Bit depth : 8 bits
Scan type : Progressive
Bits/(Pixel*Frame) : 0.211
Stream size : 1.37 GiB (83%)
Title : wolf1245 & MediaBit
Writing library : x264 core 157 r2958 57baac4
Encoding settings : cabac=1 / ref=11 / deblock=1:-3:-3 / analyse=0x3:0x133 / me=umh / subme=11 / psy=1 / psy_rd=1.00:0.15 / mixed_ref=1 / me_range=48 / chroma_me=1 / trellis=2 / 8x8dct=1 / cqm=0 / deadzone=21,11 / fast_pskip=0 / chroma_qp_offset=-3 / threads=10 / lookahead_threads=2 / sliced_threads=0 / nr=0 / decimate=0 / interlaced=0 / bluray_compat=0 / constrained_intra=0 / bframes=11 / b_pyramid=2 / b_adapt=2 / b_bias=0 / direct=3 / weightb=1 / open_gop=0 / weightp=2 / keyint=240 / keyint_min=24 / scenecut=40 / intra_refresh=0 / rc_lookahead=60 / rc=2pass / mbtree=0 / bitrate=2222 / ratetol=1.0 / qcomp=0.60 / qpmin=0 / qpmax=69 / qpstep=4 / cplxblur=20.0 / qblur=0.5 / vbv_maxrate=50000 / vbv_bufsize=62500 / nal_hrd=none / filler=0 / ip_ratio=1.40 / pb_ratio=1.30 / aq=2:1.00
Language : English
Default : Yes
Forced : No

Audio
ID : 2
Format : AC-3
Format/Info : Audio Coding 3
Commercial name : Dolby Digital
Codec ID : A_AC3
Duration : 1 h 28 min
Bit rate mode : Constant
Bit rate : 448 kb/s
Channel(s) : 6 channels
Channel layout : L R C LFE Ls Rs
Sampling rate : 48.0 kHz
Frame rate : 31.250 FPS (1536 SPF)
Compression mode : Lossy
Stream size : 284 MiB (17%)
Title : MVO (HDrezka Studio)
Language : Russian
Service kind : Complete Main
Default : Yes
Forced : No

Menu
00:00:00.000 : :Chapter 1
00:04:31.771 : :Chapter 2
00:12:24.744 : :Chapter 3
00:21:03.762 : :Chapter 4
00:32:46.965 : :Chapter 5
00:47:15.833 : :Chapter 6
01:00:36.132 : :Chapter 7
01:17:07.623 : :Chapter 8
01:25:40.135 : :Chapter 9
Релиз от: &
pb.wtf



Скачать Подвал через торрент https://b.radikal.ru/b09/2009/3a/5f1a51110bcc.png Скачать фильм Подвал через торрент бесплантно в хорошем качестве Описание: Музыкант Крейг Оуэн оказывается похищен и просыпается в подвале. Его похититель, известный как «Близнецы», – извращенный ... 10 10 3
Торрент: Зарегистрирован [2020-09-12 14:06] · скачан: 69 раз
Статус: √ проверено
Размер: 1.65 GB
Как cкачать? Как скачать Подвал через торрент | UTorrent

28-11-2019 20:33  

Отключить всю рекламу на сайте

    Дорогой пользователь! Огромная просьба, поблагодарите релизера, оцените раздачу и оставьте свои комментарий, если Вы скачали Подвал через торрент бесплатно! Внесите свою лепту в развитие PiratBit!
    Комментировать посты могут только пользователи прошедшие не сложную регистрацию
    Показать сообщения:    

    Подвал через торрент
    Скачать бесплатно Подвал
    Подвал скачать торрент
    Подвал смотреть онлайн
    Cкачать фильм Подвал бесплатно
    Подвал скачать торрент в хорошем качестве
    Подвал смотреть онлайн бесплатно в хорошем качестве


    Вы не можете начинать темы
    Вы не можете отвечать на сообщения
    Вы не можете редактировать свои сообщения
    Вы не можете удалять свои сообщения
    Вы не можете голосовать в опросах
    Вы не можете прикреплять файлы к сообщениям
    Вы можете скачивать файлы