Ссылка на приватное зеркало нашего сайта всего за 1$. Внимание количество ограничено!!!

2 сезон

iTunes

1 сезон

1

2 сезон

2 сезон

iTunes

1 сезон

RePack

30

Ultimate

ВАЖНО

ИГРА 18+

pack

RePack

MK11
pack

Забери бонус

RePack

jed

!!Акция!!

Alien_Rage

RePack

fifa19

RePack

Assassins Creed: Odyssey

RePack

NEED FOR SPEED™ PAYBACK

4 сезон

9 сезон

Бесстыжие 9 сезон

Все сериалы

все сериалы на PB.wtf

RePack

FAR CRY 5
  

Сила стихии / Сила природы / Force of Nature (Майкл Полиш) [2020, боевик, драма, HDRip-AVC] [DUB] [iTunes] pb.wtf

Сила стихии через торрент pb.wtf

Размер: 1.88 GB | Добавлен: 2 мес. 19 д. назад | Торрент скачан:83 раза
Скачать  

13-09-2020 11:22 Сила стихии Скачать торрент  

Сила стихии / Сила природы / Force of Nature


Информация о фильме:

Название: Сила стихии / Сила природы
Оригинальное название: Force of Nature
Год выхода: 2020
Жанр: Драма, боевик
Режиссер: Майкл Полиш

В ролях: Мэл Гибсон, Кейт Босворт, Эмиль Хирш, Дэвид Зайас, Стефани Кайо, Тайлер Джон Олсон, Уильям Кэтлетт, Джаспер Полиш, Свен Теммел, Джеси Маккинни

Описание: Во время урагана группа вооруженных бандитов пытается провернуть ограбление в здании опустевшей высотки. Они вступают в борьбу с полицейскими, руководящими эвакуацией, и с одним отставным офицером, отказавшимся от убежища. В небоскребе начинается смертельное преследование и перестрелка на фоне бушующей стихии.

rating

Страна: США
Студия: Emmett/Furla Films, FON Film Production, Force of Nature Film
Продолжительность: 01:31:06
Перевод: Дублированный - iTunes



Информация о файле:
Кодек: AVC
Формат: MKV
Качество: HDRip-AVC
Видео: MPEG-4 AVC, 1024x428 (2.40:1), 23.976 fps, 2122 kbps, 0.202
Аудио RU: AC3, 6 ch, 48 kHz, 384 kbps
Аудио EN: AC3, 6 ch, 48 kHz, 448 kbps
Субтитры: Русские (Forced), английские
Навигация по главам: Да



***дублированный перевод iTunes, со вставками профессионального многоголосого перевода от HDRezka Studio (около пяти минут).
x264 info: frame I:1038 Avg QP:15.60 size: 64517
x264 info: frame P:29712 Avg QP:18.51 size: 21858
x264 info: frame B:100314 Avg QP:20.52 size: 7300
x264 info: consecutive B-frames: 2.7% 5.0% 8.0% 18.0% 14.5% 40.4% 5.0% 2.7% 1.4% 1.0% 0.7% 0.6%
=================================

General
Unique ID : 241057897113963270010583446697943893364 (0xB55A0FEED910DC1AC07E5D3ED9FA0574)
Complete name : D:\uTorrent\Рипы_от_wolf1245_MediaBit\Force of Nature 2020 from wolf1245 & MediaBit.mkv
Format : Matroska
Format version : Version 4
File size : 1.88 GiB
Duration : 1 h 31 min
Overall bit rate : 2 954 kb/s
Movie name : Force of Nature 2020 from wolf1245 & MediaBit
Encoded date : UTC 2020-09-13 11:10:22
Writing application : mkvmerge v50.0.0 ('Awakenings') 64-bit
Writing library : libebml v1.4.0 + libmatroska v1.6.2

Video
ID : 1
Format : AVC
Format/Info : Advanced Video Codec
Format profile : High@L4.1
Format settings : CABAC / 11 Ref Frames
Format settings, CABAC : Yes
Format settings, Reference frames : 11 frames
Codec ID : V_MPEG4/ISO/AVC
Duration : 1 h 31 min
Bit rate : 2 122 kb/s
Width : 1 024 pixels
Height : 428 pixels
Display aspect ratio : 2.40:1
Frame rate mode : Constant
Frame rate : 23.976 (24000/1001) FPS
Color space : YUV
Chroma subsampling : 4:2:0
Bit depth : 8 bits
Scan type : Progressive
Bits/(Pixel*Frame) : 0.202
Stream size : 1.35 GiB (72%)
Title : wolf1245 & MediaBit
Writing library : x264 core 157 r2958 57baac4
Encoding settings : cabac=1 / ref=11 / deblock=1:-3:-3 / analyse=0x3:0x133 / me=umh / subme=11 / psy=1 / psy_rd=1.10:0.00 / mixed_ref=1 / me_range=48 / chroma_me=1 / trellis=2 / 8x8dct=1 / cqm=0 / deadzone=21,11 / fast_pskip=0 / chroma_qp_offset=-2 / threads=10 / lookahead_threads=2 / sliced_threads=0 / nr=0 / decimate=0 / interlaced=0 / bluray_compat=0 / constrained_intra=0 / bframes=11 / b_pyramid=2 / b_adapt=2 / b_bias=0 / direct=3 / weightb=1 / open_gop=0 / weightp=2 / keyint=240 / keyint_min=24 / scenecut=40 / intra_refresh=0 / rc_lookahead=60 / rc=2pass / mbtree=0 / bitrate=2122 / ratetol=1.0 / qcomp=0.60 / qpmin=0 / qpmax=69 / qpstep=4 / cplxblur=20.0 / qblur=0.5 / vbv_maxrate=50000 / vbv_bufsize=62500 / nal_hrd=none / filler=0 / ip_ratio=1.40 / pb_ratio=1.30 / aq=2:0.80
Language : English
Default : Yes
Forced : No

Audio #1
ID : 2
Format : AC-3
Format/Info : Audio Coding 3
Commercial name : Dolby Digital
Codec ID : A_AC3
Duration : 1 h 31 min
Bit rate mode : Constant
Bit rate : 384 kb/s
Channel(s) : 6 channels
Channel layout : L R C LFE Ls Rs
Sampling rate : 48.0 kHz
Frame rate : 31.250 FPS (1536 SPF)
Compression mode : Lossy
Stream size : 250 MiB (13%)
Title : DUB+MVO [iTunes+HDRezka]
Language : Russian
Service kind : Complete Main
Default : Yes
Forced : No

Audio #2
ID : 3
Format : AC-3
Format/Info : Audio Coding 3
Commercial name : Dolby Digital
Codec ID : A_AC3
Duration : 1 h 31 min
Bit rate mode : Constant
Bit rate : 448 kb/s
Channel(s) : 6 channels
Channel layout : L R C LFE Ls Rs
Sampling rate : 48.0 kHz
Frame rate : 31.250 FPS (1536 SPF)
Compression mode : Lossy
Stream size : 292 MiB (15%)
Title : Original
Language : English
Service kind : Complete Main
Default : No
Forced : No

Text #1
ID : 4
Format : UTF-8
Codec ID : S_TEXT/UTF8
Codec ID/Info : UTF-8 Plain Text
Duration : 1 h 25 min
Bit rate : 2 b/s
Count of elements : 49
Stream size : 1.68 KiB (0%)
Title : Forced [For HDRezka Studio]
Language : Russian
Default : No
Forced : No

Text #2
ID : 5
Format : UTF-8
Codec ID : S_TEXT/UTF8
Codec ID/Info : UTF-8 Plain Text
Duration : 1 h 25 min
Bit rate : 52 b/s
Count of elements : 1062
Stream size : 32.9 KiB (0%)
Title : Full
Language : English
Default : No
Forced : No

Menu
00:00:00.000 : :Chapter 01
00:06:31.474 : :Chapter 02
00:13:17.130 : :Chapter 03
00:16:04.672 : :Chapter 04
00:21:07.975 : :Chapter 05
00:26:09.568 : :Chapter 06
00:31:58.375 : :Chapter 07
00:37:10.395 : :Chapter 08
00:43:02.121 : :Chapter 09
00:49:38.559 : :Chapter 10
00:56:44.735 : :Chapter 11
01:00:58.905 : :Chapter 12
01:07:58.283 : :Chapter 13
01:12:43.150 : :Chapter 14
01:17:51.584 : :Chapter 15
01:24:53.255 : :Chapter 16
Релиз от: &
pb.wtf



Скачать Сила стихии через торрент https://c.radikal.ru/c35/2009/bc/d0d6286f16e7.jpg Скачать фильм Сила стихии через торрент бесплантно в хорошем качестве Описание: Во время урагана группа вооруженных бандитов пытается провернуть ограбление в здании опустевшей высотки. Они вступают в борьбу ... 10 10 2
Торрент: Зарегистрирован [2020-09-13 11:22] · скачан: 83 раз
Статус: √ проверено
Размер: 1.88 GB
Как cкачать? Как скачать Сила стихии через торрент | qTorrent

% Раздел Тема Автор DL S | L
Фильмы 2019-2020 [DVDrip, WEB-DLRip, HDrip] (DUB, MVO) [ 1.42 GB ] Сила стихии / Сила природы / Force of Nature [2020 BDRip] - Twi7ter Скачать
17 | 1
Ultra HD (UHD: 2K, 4K, 8K) — видео сверхвысокой чёткости [ 44.81 GB ] Сила стихии / Сила природы / Force of Nature [2020 UHD BDRemux 2160p ] [Расширенная версия] bober100 Скачать
1 | 0
Фильмы 2019-2020 [DVDrip, WEB-DLRip, HDrip] (DUB, MVO) [ 748 MB ] Сила стихии / Сила природы / Force of Nature [2020 HDRip] bober100 Скачать
4 | 0
Фильмы 2019-2020 [DVDrip, WEB-DLRip, HDrip] (DUB, MVO) [ 1.42 GB ] Сила стихии / Сила природы / Force of Nature [2020 BDRip] - Twi7ter Скачать
6 | 0
Фильмы 2019-2020 [DVDrip, WEB-DLRip, HDrip] (DUB, MVO) [ 1.46 GB ] Сила стихии / Сила природы / Force of Nature [2020 BDRip] bober100 Скачать
1 | 0
Фильмы 2019-2020 [DVDrip, WEB-DLRip, HDrip] (DUB, MVO) [ 2.01 GB ] Сила стихии / Сила природы / Force of Nature [2020 BDRip-AVC] - ExKinoRay Enigma2010 Скачать
12 | 0
Фильмы (Blu-ray, BD-Remux, HDDVD) [ 20.13 GB ] Сила стихии / Сила природы / Force of Nature [2020 BD Remux 1080p] +MVO [HDRezka Studio] bober100 Скачать
1 | 0

28-11-2019 20:33  

Отключить всю рекламу на сайте

    Дорогой пользователь! Огромная просьба, поблагодарите релизера, оцените раздачу и оставьте свои комментарий, если Вы скачали Сила стихии через торрент бесплатно! Внесите свою лепту в развитие PiratBit!
    Комментировать посты могут только пользователи прошедшие не сложную регистрацию
    Показать сообщения:    

    Сила стихии через торрент
    Скачать бесплатно Сила стихии
    Сила стихии скачать торрент
    Сила стихии смотреть онлайн
    Cкачать фильм Сила стихии бесплатно
    Сила стихии скачать торрент в хорошем качестве
    Сила стихии смотреть онлайн бесплатно в хорошем качестве


    Вы не можете начинать темы
    Вы не можете отвечать на сообщения
    Вы не можете редактировать свои сообщения
    Вы не можете удалять свои сообщения
    Вы не можете голосовать в опросах
    Вы не можете прикреплять файлы к сообщениям
    Вы можете скачивать файлы