Ссылка на приватное зеркало нашего сайта всего за 1$. Внимание количество ограничено!!!

2 сезон

iTunes

iTunes

1

iTunes

iTunes

iTunes

WEBRip

iTunes

30
pack

Вам бонус

ВАЖНО

!!Акция!!

Alien_RageХит недели

RePack

Horizon Zero Dawn

ИГРА 18+

pack

RePack

jed

!!Акция!!

Alien_Rage

RePack

fifa19

RePack

Assassins Creed: Odyssey

RePack

NEED FOR SPEED™ PAYBACK

4 сезон

9 сезон

Бесстыжие 9 сезон

Все сериалы

все сериалы на PB.wtf

RePack

FAR CRY 5
  

Шифр / Сезон: 2 / Серии: 1-8 из 8 (Вера Сторожева) [2020, Детектив, HDTV 1080i] pb.wtf

Шифр через торрент pb.wtf

Раздают: 3 [ 362 KB/s ] Качают: 1 [ 0 KB/s ]
Размер: 20.44 GB | Добавлен: 1 д. 9 ч. назад | Торрент скачан:11 раз
Скачать  

14-09-2020 16:36 Шифр Скачать торрент  

Шифр 2
Год выпуска: 2020
Страна: Россия
Выпущено: Леан-М, Sony Pictures Television
Жанр: Детектив
Продолжительность: ~ 00:49:00 серия
Перевод: Не требуется
Субтитры: отсутствуют

Режиссер: Вера Сторожева



В ролях: Елена Панова, Марьяна Спивак, Екатерина Вилкова, Яна Дюбуи, Сергей Пускепалис, Олег Гаас, Наталья Суркова, Виталия Корниенко, Семён Шкаликов, Анна Лаврентьева, Софья Хилькова, Анна Королева (II), Сергей Черданцев, Сергей Белов, Софья Горелик, Сергей Медведев (III)

Описание: Действие сериала разворачивается в 1957 году в Москве. Ирина, Анна, Софья и Катерина раскрывают новые загадочные убийства. Подполковник МУРа Проскурин категорически против вмешательства девушек в дела следствия, но в исключительных случаях ему все-таки приходится использовать их уникальные аналитические способности и нестандартные неожиданные идеи. Многое изменилось в жизни девушек с тех пор, как они спустя несколько лет после войны вновь стали спецгруппой. Соня развелась с Виктором, устроилась на работу в МУР. У Сони и помощника Проскурина Кима Вершинина завязываются романтические отношения. Катерине удалось наладить понимание с дочерью Лидой. Анна больше не работает в ресторане и в ее личной жизни наметились серьезные изменения. И только у Ирины все по-прежнему - муж, дети, работа в школе. Хотя, это только внешнее спокойствие и благополучие. Но несмотря на личные проблемы, девушки активно продолжают деятельность своей спецгруппы, которая все больше приобретает особый смысл и значение в их жизни.

Качество: HDTV 1080i
Формат: TS

Видео: MPEG-TS AVC, ~ 5900 Кбит/с, 1920x1080, 25 кадр/с
Аудио#1: Русский (AC3, 6 ch, 384 Кбит/с)
Аудио#2: Русский (MP2, 2 ch, 192 Кбит/с)
скриншот  скриншот  скриншот  скриншот  

Общее
Идентификатор : 1 (0x1)
Полное имя : D:ЗаписьShifr.S02.HDTV(1080i).GeneralFilm1.Shifr.S02.HDTV(1080i).GeneralFilm.ts
Формат : MPEG-TS
Размер файла : 2,33 Гбайт
Продолжительность : 49 м.
Режим общего битрейта : Переменный
Общий поток : 6786 Кбит/сек

Видео
Идентификатор : 1904 (0x770)
Идентификатор меню : 5640 (0x1608)
Формат : AVC
Формат/Информация : Advanced Video Codec
Профиль формата : High@L4.0
Параметр CABAC формата : Да
Параметр ReFrames формата : 3 кадра
Идентификатор кодека : 27
Продолжительность : 49 м.
Битрейт : 5869 Кбит/сек
Ширина : 1920 пикселей
Высота : 1080 пикселей
Соотношение сторон : 16:9
Частота кадров : 25,000 кадров/сек
Стандарт вещания : Component
Цветовое пространство : YUV
Субдискретизация насыщенности : 4:2:0
Битовая глубина : 8 бит
Тип развёртки : Чересстрочная
Порядок развёртки : Верхнее поле первое
Бит/(Пиксели*Кадры) : 0.113
Размер потока : 2,02 Гбайт (86%)
Основные цвета : BT.709
Характеристики трансфера : BT.709
Коэффициенты матрицы : BT.709

Аудио #1
Идентификатор : 2904 (0xB58)
Идентификатор меню : 5640 (0x1608)
Формат : AC-3
Формат/Информация : Audio Coding 3
Расширение режима : CM (complete main)
Параметр Endianness формата : Big
Идентификатор кодека : 6
Продолжительность : 49 м.
Вид битрейта : Постоянный
Битрейт : 384 Кбит/сек
Каналы : 6 каналов
Расположение каналов : Front: L C R, Side: L R, LFE
Частота : 48,0 КГц
Битовая глубина : 16 бит
Метод сжатия : С потерями
Задержка видео : -40 мс.
Размер потока : 135 Мбайт (6%)
Язык : Russian

Аудио #2
Идентификатор : 2905 (0xB59)
Идентификатор меню : 5640 (0x1608)
Формат : MPEG Audio
Версия формата : Version 1
Профиль формата : Layer 2
Идентификатор кодека : 3
Продолжительность : 49 м.
Вид битрейта : Постоянный
Битрейт : 192 Кбит/сек
Каналы : 2 канала
Частота : 48,0 КГц
Метод сжатия : С потерями
Задержка видео : -40 мс.
Размер потока : 67,6 Мбайт (3%)
Язык : Russian

Раздача ведётся путём добавления новых серий, при каждом добавлении создаётся новый торрент. Чтобы начать докачку новой серии, пользователям необходимо сделать следующее:

- Остановить скачивание.
- Удалить старый торрент у себя из клиента (старые серии удалять не надо).
- Скачать новый торрент и запустить его у себя в клиенте вместо старого, при этом указать клиенту путь в старую папку куда и должно происходить скачивание новых серий.

Ваш клиент при этом должен произвести хеширование (проверку) старой папки (если не производит сам - помогите ему сделать это), и будет докачивать только те серии которых у вас ещё нет. Старые серии при этом не удаляются, а продолжают раздаваться!
Если вы уже удалили старые серии, то предотвратить повторную закачку старых серий можно, отжав галочку в соответствующих местах при запуске нового торрента. По возможности, желательно не удалять старые серии как можно дольше, чтобы релизер не столько продолжал раздавать старые серии, а смог сконцентрироваться на новых.
pb.wtf



Скачать Шифр через торрент http://d.radikal.ru/d21/2009/e3/cd2c5b5ee360.jpg Скачать фильм Шифр через торрент бесплантно в хорошем качестве Описание: Действие сериала разворачивается в 1957 году в Москве. Ирина, Анна, Софья и Катерина раскрывают новые загадочные убийства. ... 10 10 7
Торрент: Зарегистрирован [2020-09-24 16:03] · скачан: 11 раз
Статус: √ проверено
Размер: 20.44 GB
Как cкачать? Как скачать Шифр через торрент | qTorrent

% Раздел Тема Автор DL S | L
Наши сериалы [ 6.51 GB ] Шифр / Сезон: 2 / Серии: 1-8 из 8 [2020 HDTVRip-AVC] bober100 Скачать
2 | 2
* Наши сериалы [ 4.69 GB ] Шифр / Сезон: 2 / Серии: 1-8 из 8 [2020 SATRip] Russian Mafia Скачать
5 | 1
Наши сериалы [ 10.97 GB ] Шифр / Сезон: 2 / Серии: 1-8 из 8 [2020 HDTVRip 720p] bober100 Скачать
3 | 1
Наши сериалы [ 5.35 GB ] Шифр / Сезон: 2 / Серии: 1-8 из 8 [2020 HDTVRip] bober100 Скачать
5 | 1

28-11-2019 20:33  

Отключить всю рекламу на сайте

    Дорогой пользователь! Огромная просьба, поблагодарите релизера, оцените раздачу и оставьте свои комментарий, если Вы скачали Шифр через торрент бесплатно! Внесите свою лепту в развитие PiratBit!
    Комментировать посты могут только пользователи прошедшие не сложную регистрацию
    Показать сообщения:    

    Шифр через торрент
    Скачать бесплатно Шифр
    Шифр скачать торрент
    Шифр смотреть онлайн
    Cкачать фильм Шифр бесплатно
    Шифр скачать торрент в хорошем качестве
    Шифр смотреть онлайн бесплатно в хорошем качестве


    Вы не можете начинать темы
    Вы не можете отвечать на сообщения
    Вы не можете редактировать свои сообщения
    Вы не можете удалять свои сообщения
    Вы не можете голосовать в опросах
    Вы не можете прикреплять файлы к сообщениям
    Вы можете скачивать файлы