Доктор Стрэндж

Лицензия

Добыча

Дубляж

Уэнсдэй

1 сезон

Тор

Дубляж

В эфире

Дубляж

Там, где раки поют

MVO

Властелин колец

1 сезон

Deluxe

pack

Рекомендуем

30

Пиратка

ВАЖНО

ВАЖНО

Ghostwire

Пиратка

jed

RePack

nioh2

RePack

RDR2

RePack

NEED FOR SPEED™ PAYBACK

RePack

скачать торрент

Кинопоиск HD

Острые козырьки 6 сезон

6 сезон

FAR CRY 6

RePack

скачать торрент

Лицензия

скачать торрент

MVO

1

1 сезон

скачать торрент

1 сезон

скачать торрент

Лицензия

  

Шифр / Сезон: 2 / Серии: 1-8 из 8 (Вера Сторожева) [2020, Детектив, HDTVRip]

Шифр через торрент pb.wtf

Размер: 5.35 GB | Добавлен: 2 года 2 мес. назад | Торрент скачан:142 раза
Смотреть онлайн | Скачать   

14-09-2020 16:41 Шифр Скачать торрент  

Шифр 2
Год выпуска: 2020
Страна: Россия
Выпущено: Леан-М, Sony Pictures Television
Жанр: Детектив
Продолжительность: ~ 00:49:00 серия
Перевод: Не требуется
Субтитры: отсутствуют

Режиссер: Вера Сторожева



В ролях: Елена Панова, Марьяна Спивак, Екатерина Вилкова, Яна Дюбуи, Сергей Пускепалис, Олег Гаас, Наталья Суркова, Виталия Корниенко, Семён Шкаликов, Анна Лаврентьева, Софья Хилькова, Анна Королева (II), Сергей Черданцев, Сергей Белов, Софья Горелик, Сергей Медведев (III)

Описание: Действие сериала разворачивается в 1957 году в Москве. Ирина, Анна, Софья и Катерина раскрывают новые загадочные убийства. Подполковник МУРа Проскурин категорически против вмешательства девушек в дела следствия, но в исключительных случаях ему все-таки приходится использовать их уникальные аналитические способности и нестандартные неожиданные идеи. Многое изменилось в жизни девушек с тех пор, как они спустя несколько лет после войны вновь стали спецгруппой. Соня развелась с Виктором, устроилась на работу в МУР. У Сони и помощника Проскурина Кима Вершинина завязываются романтические отношения. Катерине удалось наладить понимание с дочерью Лидой. Анна больше не работает в ресторане и в ее личной жизни наметились серьезные изменения. И только у Ирины все по-прежнему - муж, дети, работа в школе. Хотя, это только внешнее спокойствие и благополучие. Но несмотря на личные проблемы, девушки активно продолжают деятельность своей спецгруппы, которая все больше приобретает особый смысл и значение в их жизни.

Качество: HDTVRip
Формат: AVI

Видео: XviD, ~ 1600 Кбит/с, 704x384, 25 кадр/с
Аудио: Русский (AC3, 2 ch, 192 Кбит/с)
скриншот  скриншот  скриншот  скриншот  

Общее
Полное имя : D:Shifr.S02.HDTVRip.GeneralFilm1.Shifr.S02.HDTVRip.GeneralFilm.avi
Формат : AVI
Формат/Информация : Audio Video Interleave
Размер файла : 634 Мбайт
Продолжительность : 49 м.
Общий поток : 1801 Кбит/сек
Программа кодирования : VirtualDubMod 1.5.10.3 | www.virtualdub-fr.org || (build 2550/release)
Библиотека кодирования : VirtualDubMod build 2550/release

Видео
Идентификатор : 0
Формат : MPEG-4 Visual
Профиль формата : Advanced [email protected]
Параметр BVOP формата : 1
Параметр QPel формата : Нет
Параметр GMC формата : Без точки перехода
Параметр матрицы формата : Выборочная
Идентификатор кодека : XVID
Идентификатор кодека/Подсказка : XviD
Продолжительность : 49 м.
Битрейт : 1600 Кбит/сек
Ширина : 704 пикселя
Высота : 384 пикселя
Соотношение сторон : 1,85:1
Частота кадров : 25,000 кадров/сек
Цветовое пространство : YUV
Субдискретизация насыщенности : 4:2:0
Битовая глубина : 8 бит
Тип развёртки : Прогрессивная
Метод сжатия : С потерями
Бит/(Пиксели*Кадры) : 0.237
Размер потока : 563 Мбайт (89%)
Библиотека кодирования : XviD 1.2.1 (UTC 2008-12-04)

Аудио
Идентификатор : 1
Формат : AC-3
Формат/Информация : Audio Coding 3
Расширение режима : CM (complete main)
Параметр Endianness формата : Big
Идентификатор кодека : 2000
Продолжительность : 49 м.
Вид битрейта : Постоянный
Битрейт : 192 Кбит/сек
Каналы : 2 канала
Расположение каналов : Front: L R
Частота : 48,0 КГц
Битовая глубина : 16 бит
Метод сжатия : С потерями
Размер потока : 67,6 Мбайт (11%)
Выравнивание : Разделение по промежуткам
Продолжительность промежутка : 40 мс. (1,00 видеокадр)
Время предзагрузки промежутка : 500 мс.

Раздача ведётся путём добавления новых серий, при каждом добавлении создаётся новый торрент. Чтобы начать докачку новой серии, пользователям необходимо сделать следующее:

- Остановить скачивание.
- Удалить старый торрент у себя из клиента (старые серии удалять не надо).
- Скачать новый торрент и запустить его у себя в клиенте вместо старого, при этом указать клиенту путь в старую папку куда и должно происходить скачивание новых серий.

Ваш клиент при этом должен произвести хеширование (проверку) старой папки (если не производит сам - помогите ему сделать это), и будет докачивать только те серии которых у вас ещё нет. Старые серии при этом не удаляются, а продолжают раздаваться!
Если вы уже удалили старые серии, то предотвратить повторную закачку старых серий можно, отжав галочку в соответствующих местах при запуске нового торрента. По возможности, желательно не удалять старые серии как можно дольше, чтобы релизер не столько продолжал раздавать старые серии, а смог сконцентрироваться на новых.



Скачать Шифр через торрент http://d.radikal.ru/d21/2009/e3/cd2c5b5ee360.jpg Скачать, смотреть онлайн Шифр бесплантно в хорошем качестве Описание: Действие сериала разворачивается в 1957 году в Москве. Ирина, Анна, Софья и Катерина раскрывают новые загадочные убийства. ... 8.2 10 5
Торрент: Зарегистрирован [2020-09-24 16:15] · скачан: 142 раз
Статус: √ проверено
Размер: 5.35 GB
Как cкачать? Как скачать Шифр через торрент | UTorrent

% Раздел Тема Автор DL S | L
Наши сериалы [ 8.36 GB ] Шифр / Сезон: 3 / Серии: 1-13 из 16 | | SATRip bober100 Скачать
7 | 5
Наши сериалы [ 5.25 GB ] Шифр / Сезон: 3 / Серии: 1-8 из 8 | | WEBRip-AVC bober100 Скачать
5 | 0
Наши сериалы [ 4.69 GB ] Шифр / Сезон: 2 / Серии: 1-8 из 8 | | SATRip Russian Mafia Скачать
3 | 0
Наши сериалы [ 10.97 GB ] Шифр / Сезон: 2 / Серии: 1-8 из 8 | | HDTVRip 720p bober100 Скачать
2 | 0
Наши сериалы [ 6.51 GB ] Шифр / Сезон: 2 / Серии: 1-8 из 8 | | HDTVRip-AVC bober100 Скачать
2 | 0
Наши сериалы [ 20.44 GB ] Шифр / Сезон: 2 / Серии: 1-8 из 8 | | HDTV 1080i bober100 Скачать
1 | 0
Наши сериалы [ 26.97 GB ] Шифр / Сезон: 1 / Серии: 1-16 из 16 | | 1080p bober100 Скачать
2 | 0

28-11-2019 20:33  


Отключить вcю реклaмy на сайте, в т.ч. и в плеере онлайн просмотра!

    Дорогой пользователь! Огромная просьба, поблагодарите релизера, оцените раздачу и оставьте свои комментарий, если Вы скачали Шифр через торрент бесплатно!!
    Комментировать посты могут только пользователи прошедшие не сложную регистрацию
    Показать сообщения:    


    Шифр через торрент
    Скачать бесплатно Шифр
    Шифр скачать торрент
    Шифр смотреть онлайн
    Cкачать фильм Шифр бесплатно
    Шифр скачать торрент в хорошем качестве
    Шифр смотреть онлайн бесплатно в хорошем качестве
    Вы не можете начинать темы
    Вы не можете отвечать на сообщения
    Вы не можете редактировать свои сообщения
    Вы не можете удалять свои сообщения
    Вы не можете голосовать в опросах
    Вы не можете прикреплять файлы к сообщениям
    Вы можете скачивать файлы
    Шифр / Сезон: 2 / Серии: 1-8 из 8 [2020, Детектив, HDTVRip] смотреть онлайн, скачать торрент picoco.icu