Ссылка на приватное зеркало нашего сайта всего за 1$. Внимание количество ограничено!!!

2 сезон

iTunes

iTunes

1

iTunes

iTunes

iTunes

WEBRip

iTunes

30
pack

Вам бонус

ВАЖНО

!!Акция!!

Alien_RageХит недели

RePack

Horizon Zero Dawn

ИГРА 18+

pack

RePack

jed

!!Акция!!

Alien_Rage

RePack

fifa19

RePack

Assassins Creed: Odyssey

RePack

NEED FOR SPEED™ PAYBACK

4 сезон

9 сезон

Бесстыжие 9 сезон

Все сериалы

все сериалы на PB.wtf

RePack

FAR CRY 5
  

Пеле: Рождение легенды / Pelé: Birth of a Legend (Джефф Цимбалист, Майкл Цимбалист) [2016, Драма, биография, спорт, HDRip-AVC] [DUB] [Лицензия] от MediaBit pb.wtf

Пеле: Рождение легенды через торрент pb.wtf

Раздают: 7 [ 0 KB/s ]
Размер: 2 GB | Добавлен: 7 д. назад | Торрент скачан:56 раз
Скачать  

15-09-2020 15:57 Пеле: Рождение легенды Скачать торрент  


Пеле: Рождение легенды / Pelé: Birth of a Legend
Информация о фильме:
Название: Пеле: Рождение легенды
Оригинальное название: Pelé: Birth of a Legend
Год выхода: 2016
Жанр: Драма, биография, спорт
Режиссер: Джефф Цимбалист, Майкл Цимбалист

В ролях: Винсент Д`Онофрио, Родриго Санторо, Диего Бонета, Колм Мини, Сеу Жоржи, Андре Маттос, Свен Холмберг

Описание: Биографическая драма расскажет о закулисье спорта, в частности о жизни величайшего игрока в истории футбола — Пеле. Зрители станут свидетелями непростой жизни бразильской легенды спорта. Сколько преград тому удалось преодолеть на своем пути, чтобы добиться мировой популярности? Это сейчас он демонстрирует невероятные профессиональные достижения и вдобавок ко всему не забывает о благородных делах, но раньше все было по-другому. С ранних лет Пеле жаждал получить признание, неустанно шел к своей мечте, преодолевая препятствия, тем самым закаляя свой характер. Картина охватывает детство футболиста, вплоть до победы на первом этапе Кубка мира в Швеции, когда Пеле было семнадцать лет. Судьба не всегда была благосклонна к спортсмену, однако за каждой успешной личности стоит огромный труд, железная воля и твердая уверенность в собственных силах.

rating

Страна: США
Студия: Imagine Entertainment, Seine Pictures , Zohar International
Продолжительность: 01:47:05
Перевод: Дублированный - Лицензия



Информация о файле:
Кодек: AVC
Формат: MKV
Качество: HDRip-AVC
Видео: MPEG-4 AVC, 1024x428 (2.40:1), 23.976 fps, 2222 kbps, 0.211
Аудио RU: AC3, 6 ch, 48 kHz, 448 kbps
Субтитры: Английские
Навигация по главам: Да



x264 info: frame I:1356 Avg QP:15.34 size: 68313
x264 info: frame P:47700 Avg QP:18.87 size: 20494
x264 info: frame B:105000 Avg QP:20.58 size: 6801
x264 info: consecutive B-frames: 7.6% 7.2% 13.8% 48.5% 9.3% 7.0% 2.7% 2.7% 0.3% 0.2% 0.1% 0.4%
======================
General
Unique ID : 54385447250119350098537431435010268621 (0x28EA41926094193912DE3DB788F25DCD)
Complete name : D:uTorrentРипы_от_wolf1245_MediaBitPele.Birth.Of.A.Legend.2016.HDRip-AVC from wolf1245 & MediaBit.mkv
Format : Matroska
Format version : Version 4
File size : 2.00 GiB
Duration : 1 h 47 min
Overall bit rate : 2 671 kb/s
Movie name : Pele.Birth.Of.A.Legend.2016.HDRip-AVC from wolf1245 & MediaBit
Encoded date : UTC 2020-09-14 17:23:15
Writing application : mkvmerge v50.0.0 ('Awakenings') 64-bit
Writing library : libebml v1.4.0 + libmatroska v1.6.2

Video
ID : 1
Format : AVC
Format/Info : Advanced Video Codec
Format profile : High@L4.1
Format settings : CABAC / 11 Ref Frames
Format settings, CABAC : Yes
Format settings, Reference frames : 11 frames
Codec ID : V_MPEG4/ISO/AVC
Duration : 1 h 47 min
Bit rate : 2 222 kb/s
Width : 1 024 pixels
Height : 428 pixels
Display aspect ratio : 2.40:1
Frame rate mode : Constant
Frame rate : 23.976 (24000/1001) FPS
Color space : YUV
Chroma subsampling : 4:2:0
Bit depth : 8 bits
Scan type : Progressive
Bits/(Pixel*Frame) : 0.211
Stream size : 1.66 GiB (83%)
Title : wolf1245 & MediaBit
Writing library : x264 core 157 r2958 57baac4
Encoding settings : cabac=1 / ref=11 / deblock=1:-3:-3 / analyse=0x3:0x133 / me=umh / subme=11 / psy=1 / psy_rd=1.00:0.10 / mixed_ref=1 / me_range=48 / chroma_me=1 / trellis=2 / 8x8dct=1 / cqm=0 / deadzone=21,11 / fast_pskip=0 / chroma_qp_offset=-3 / threads=10 / lookahead_threads=2 / sliced_threads=0 / nr=0 / decimate=0 / interlaced=0 / bluray_compat=0 / constrained_intra=0 / bframes=11 / b_pyramid=2 / b_adapt=2 / b_bias=0 / direct=3 / weightb=1 / open_gop=0 / weightp=2 / keyint=240 / keyint_min=24 / scenecut=40 / intra_refresh=0 / rc_lookahead=60 / rc=2pass / mbtree=0 / bitrate=2222 / ratetol=1.0 / qcomp=0.60 / qpmin=0 / qpmax=69 / qpstep=4 / cplxblur=20.0 / qblur=0.5 / vbv_maxrate=50000 / vbv_bufsize=62500 / nal_hrd=none / filler=0 / ip_ratio=1.40 / pb_ratio=1.30 / aq=2:1.00
Language : English
Default : Yes
Forced : No

Audio
ID : 2
Format : AC-3
Format/Info : Audio Coding 3
Commercial name : Dolby Digital
Codec ID : A_AC3
Duration : 1 h 47 min
Bit rate mode : Constant
Bit rate : 448 kb/s
Channel(s) : 6 channels
Channel layout : L R C LFE Ls Rs
Sampling rate : 48.0 kHz
Frame rate : 31.250 FPS (1536 SPF)
Compression mode : Lossy
Stream size : 343 MiB (17%)
Title : DUB | Лицензия
Language : Russian
Service kind : Complete Main
Default : Yes
Forced : Yes

Text
ID : 3
Format : UTF-8
Codec ID : S_TEXT/UTF8
Codec ID/Info : UTF-8 Plain Text
Duration : 1 h 40 min
Bit rate : 65 b/s
Count of elements : 1361
Stream size : 48.2 KiB (0%)
Language : English
Default : No
Forced : No

Menu
00:00:00.000 : :Chapter 1
00:08:37.808 : :Chapter 2
00:15:48.155 : :Chapter 3
00:27:30.982 : :Chapter 4
00:34:55.092 : :Chapter 5
00:43:33.569 : :Chapter 6
00:53:53.772 : :Chapter 7
01:04:19.730 : :Chapter 8
01:14:40.309 : :Chapter 9
01:21:35.056 : :Chapter 10
01:29:41.000 : :Chapter 11
01:42:00.072 : :Chapter 12
Релиз от: &
pb.wtf



Скачать Пеле: Рождение легенды через торрент https://d.radikal.ru/d11/2009/24/e5420af727f5.jpg Скачать фильм Пеле: Рождение легенды через торрент бесплантно в хорошем качестве Описание: Биографическая драма расскажет о закулисье спорта, в частности о жизни величайшего игрока в истории футбола — Пеле. Зрители ... 10 10 3
Торрент: Зарегистрирован [2020-09-15 15:57] · скачан: 56 раз
Статус: √ проверено
Размер: 2 GB
Как cкачать? Как скачать Пеле: Рождение легенды через торрент | qTorrent

28-11-2019 20:33  

Отключить всю рекламу на сайте

    Дорогой пользователь! Огромная просьба, поблагодарите релизера, оцените раздачу и оставьте свои комментарий, если Вы скачали Пеле: Рождение легенды через торрент бесплатно! Внесите свою лепту в развитие PiratBit!
    Комментировать посты могут только пользователи прошедшие не сложную регистрацию
    Показать сообщения:    

    Пеле: Рождение легенды через торрент
    Скачать бесплатно Пеле: Рождение легенды
    Пеле: Рождение легенды скачать торрент
    Пеле: Рождение легенды смотреть онлайн
    Cкачать фильм Пеле: Рождение легенды бесплатно
    Пеле: Рождение легенды скачать торрент в хорошем качестве
    Пеле: Рождение легенды смотреть онлайн бесплатно в хорошем качестве


    Вы не можете начинать темы
    Вы не можете отвечать на сообщения
    Вы не можете редактировать свои сообщения
    Вы не можете удалять свои сообщения
    Вы не можете голосовать в опросах
    Вы не можете прикреплять файлы к сообщениям
    Вы можете скачивать файлы