Ссылка на приватное зеркало нашего сайта всего за 1$. Внимание количество ограничено!!!

2 сезон

iTunes

1 сезон

1

iTunes

iTunes

iTunes

1 сезон

RePack

30

ИГРА 18+

pack

ВАЖНО

!!Акция!!

Alien_RageХит недели

RePack

MK11
pack

Забери бонус

RePack

jed

!!Акция!!

Alien_Rage

RePack

fifa19

RePack

Assassins Creed: Odyssey

RePack

NEED FOR SPEED™ PAYBACK

4 сезон

9 сезон

Бесстыжие 9 сезон

Все сериалы

все сериалы на PB.wtf

RePack

FAR CRY 5
  

Танцуй сердцем / Let's Dance (Ладислас Шолла) [2019, драма, комедия, музыка, BDRip 1080p] DUB (rus, ukr) [iTunes] pb.wtf

Танцуй сердцем через торрент pb.wtf

Раздают: 1 [ 0 KB/s ]
Размер: 15.42 GB | Добавлен: 1 мес. 8 д. назад | Торрент скачан:26 раз
Скачать  

17-09-2020 03:59 Танцуй сердцем Скачать торрент  

Танцуй сердцем | Let's Dance
Год выпуска: 2019
Страна: Франция, Бельгия
Студия: CN7 Productions, Federation Pictures
Жанр: драма, комедия, музыка
Продолжительность: 01:48:51
Перевод: Дублированный | iTunes
Субтитры: Русские (Full), английские

Режиссер: Ладислас Шолла

rating

В ролях: Райан Бенсетти, Алексия Джордано, Гийом де Тонкедек, Мехди Керкуш, Брахим Заибат, Лин Рено, Фиорелла Кампанелла, Лаура Дефретен, Николя Ушар, Магдалена Мальфрэ

Описание: Энергия танца, безудержный ритм и биение сердца - ради этого Джозеф готов отказаться от всего и отправиться на битву лучших хип-хоп танцоров планеты. В Париже он встречает Хлою, которой предстоит отбор в легендарную балетную труппу Нью-Йорка. Вместе они мечтают создать невероятное объединение стилей, которое потрясет весь мир.

Качество: BDRip 1080p
Формат: MKV

Видео: MPEG-4 AVC, 1920x804, 18.9 Mbit/s, 23.976 fps
Аудио #01: 48 kHz, AC3, 5.1, 384 Kbps | iTunes | RUS |
Аудио #02: 48 kHz, AC3, 5.1, 384 Kbps | iTunes | UKR |
Аудио #03: 48 kHz, AC3, 5.1, 640 Kbps | Оригинал | FRE |
скриншот  скриншот  скриншот  скриншот  скриншот  

General
Unique ID : 101103928662531882535261655445952630285 (0x4C0FE88AFA5EBC1242B69D4C9DC98E0D)
Complete name : D:Video111Lets.Dance.2019.BDRip.1080p.seleZen.mkv
Format : Matroska
Format version : Version 4
File size : 15.4 GiB
Duration : 1 h 48 min
Overall bit rate : 20.3 Mb/s
Movie name : Let s Dance 2019 from селезень
Encoded date : UTC 2020-09-16 22:16:52
Writing application : mkvmerge v40.0.0 ('Old Town Road + Pony') 64-bit
Writing library : libebml v1.3.9 + libmatroska v1.5.2

Video
ID : 1
Format : AVC
Format/Info : Advanced Video Codec
Format profile : High@L4.1
Format settings : CABAC / 5 Ref Frames
Format settings, CABAC : Yes
Format settings, Reference : 5 frames
Codec ID : V_MPEG4/ISO/AVC
Duration : 1 h 48 min
Bit rate : 18.9 Mb/s
Width : 1 920 pixels
Height : 804 pixels
Display aspect ratio : 2.40:1
Frame rate mode : Constant
Frame rate : 23.976 (24000/1001) FPS
Color space : YUV
Chroma subsampling : 4:2:0
Bit depth : 8 bits
Scan type : Progressive
Bits/(Pixel*Frame) : 0.510
Stream size : 14.3 GiB (93%)
Title : Encoded by seleZen
Writing library : x264 core 148 r2705kMod 3f5ed56
Encoding settings : cabac=1 / ref=5 / deblock=1:-2:-2 / analyse=0x3:0x133 / me=umh / subme=10 / psy=1 / fade_compensate=0.00 / psy_rd=1.00:0.00 / mixed_ref=1 / me_range=32 / chroma_me=1 / trellis=2 / 8x8dct=1 / cqm=0 / deadzone=21, 11 / fast_pskip=0 / chroma_qp_offset=-2 / threads=24 / lookahead_threads=4 / sliced_threads=0 / nr=0 / decimate=0 / interlaced=0 / bluray_compat=0 / constrained_intra=0 / fgo=0 / bframes=9 / b_pyramid=2 / b_adapt=2 / b_bias=0 / direct=3 / weightb=1 / open_gop=0 / weightp=2 / keyint=240 / keyint_min=23 / scenecut=40 / intra_refresh=0 / rc_lookahead=50 / rc=crf / mbtree=0 / crf=16.8000 / qcomp=0.60 / qpmin=0 / qpmax=51 / qpstep=4 / vbv_maxrate=50000 / vbv_bufsize=62500 / crf_max=0.0 / nal_hrd=none / filler=0 / ip_ratio=1.40 / pb_ratio=1.30 / aq=3:0.80
Language : French
Default : Yes
Forced : No

Audio #1
ID : 2
Format : AC-3
Format/Info : Audio Coding 3
Commercial name : Dolby Digital
Codec ID : A_AC3
Duration : 1 h 48 min
Bit rate mode : Constant
Bit rate : 384 kb/s
Channel(s) : 6 channels
Channel layout : L R C LFE Ls Rs
Sampling rate : 48.0 kHz
Frame rate : 31.250 FPS (1536 SPF)
Compression mode : Lossy
Stream size : 299 MiB (2%)
Title : iTunes
Language : Russian
Service kind : Complete Main
Default : Yes
Forced : Yes

Audio #2
ID : 3
Format : AC-3
Format/Info : Audio Coding 3
Commercial name : Dolby Digital
Codec ID : A_AC3
Duration : 1 h 48 min
Bit rate mode : Constant
Bit rate : 384 kb/s
Channel(s) : 6 channels
Channel layout : L R C LFE Ls Rs
Sampling rate : 48.0 kHz
Frame rate : 31.250 FPS (1536 SPF)
Compression mode : Lossy
Stream size : 299 MiB (2%)
Title : iTunes
Language : Ukrainian
Service kind : Complete Main
Default : No
Forced : No

Audio #3
ID : 4
Format : AC-3
Format/Info : Audio Coding 3
Commercial name : Dolby Digital
Codec ID : A_AC3
Duration : 1 h 48 min
Bit rate mode : Constant
Bit rate : 640 kb/s
Channel(s) : 6 channels
Channel layout : L R C LFE Ls Rs
Sampling rate : 48.0 kHz
Frame rate : 31.250 FPS (1536 SPF)
Compression mode : Lossy
Stream size : 498 MiB (3%)
Title : Original
Language : French
Service kind : Complete Main
Default : No
Forced : No

Text #1
ID : 5
Format : UTF-8
Codec ID : S_TEXT/UTF8
Codec ID/Info : UTF-8 Plain Text
Duration : 1 h 41 min
Bit rate : 78 b/s
Count of elements : 1312
Stream size : 58.2 KiB (0%)
Title : Full
Language : Russian
Default : No
Forced : No

Text #2
ID : 6
Format : UTF-8
Codec ID : S_TEXT/UTF8
Codec ID/Info : UTF-8 Plain Text
Duration : 1 h 42 min
Bit rate : 43 b/s
Count of elements : 1002
Stream size : 32.4 KiB (0%)
Title : Full
Language : English
Default : No
Forced : No

Menu
00:00:00.000 : :Chapter 01
00:08:15.745 : :Chapter 02
00:18:32.361 : :Chapter 03
00:26:43.018 : :Chapter 04
00:37:53.354 : :Chapter 05
00:50:26.732 : :Chapter 06
01:01:34.190 : :Chapter 07
01:13:40.624 : :Chapter 08
01:19:26.219 : :Chapter 09
01:29:08.926 : :Chapter 10
01:35:54.707 : :Chapter 11
01:42:22.427 : :Chapter 12

pb.wtf



Скачать Танцуй сердцем через торрент https://i112.fastpic.ru/big/2020/0916/4c/9c645aad685f380d0cdfa64771ac544c.jpg Скачать фильм Танцуй сердцем через торрент бесплантно в хорошем качестве Описание: Энергия танца, безудержный ритм и биение сердца - ради этого Джозеф готов отказаться от всего и отправиться на битву лучших ... 10 10 5
Торрент: Зарегистрирован [2020-09-17 03:59] · скачан: 26 раз
Статус: √ проверено
Размер: 15.42 GB
Как cкачать? Как скачать Танцуй сердцем через торрент | qTorrent

28-11-2019 20:33  

Отключить всю рекламу на сайте

    Дорогой пользователь! Огромная просьба, поблагодарите релизера, оцените раздачу и оставьте свои комментарий, если Вы скачали Танцуй сердцем через торрент бесплатно! Внесите свою лепту в развитие PiratBit!
    Комментировать посты могут только пользователи прошедшие не сложную регистрацию
    Показать сообщения:    

    Танцуй сердцем через торрент
    Скачать бесплатно Танцуй сердцем
    Танцуй сердцем скачать торрент
    Танцуй сердцем смотреть онлайн
    Cкачать фильм Танцуй сердцем бесплатно
    Танцуй сердцем скачать торрент в хорошем качестве
    Танцуй сердцем смотреть онлайн бесплатно в хорошем качестве


    Вы не можете начинать темы
    Вы не можете отвечать на сообщения
    Вы не можете редактировать свои сообщения
    Вы не можете удалять свои сообщения
    Вы не можете голосовать в опросах
    Вы не можете прикреплять файлы к сообщениям
    Вы можете скачивать файлы