2 сезон

iTunes

MVO

1

2 сезон

iTunes

iTunes

1 сезон

RePack

30

Новинка

ВАЖНО

ИГРА 18+

pack

RePack

MK11
pack

Легкие деньги

RePack

jed

RePack

fifa19

RePack

RDR2

RePack

NEED FOR SPEED™ PAYBACK

4 сезон

9 сезон

Бесстыжие 9 сезон

Все сериалы

все сериалы на PB.wtf

RePack

FAR CRY 5

Anonymous, добрый вечер, мы не успеваем собрать деньги на оплату серверов за декабрь и январь, помогите нам пожалуйста в это трудное время. В качестве благодарности мы отключим Вам всю рекламу на сайте (укажите свой ник в строку Ваше имя)!

×
  
Magnet ссылка

Надежда умирает последней / Hope Springs Eternal (Джек Ньюэлл) [2018 г., драма, комедия, WEBRip-AVC] [MVO] [HDrezka Studio] от MediaBit pb.wtf

Надежда умирает последней через торрент pb.wtf

Раздают: 1 [ 0 KB/s ]
Размер: 1.88 GB | Добавлен: 4 мес. 7 д. назад | Торрент скачан:35 раз
Скачать  

17-09-2020 16:57 Надежда умирает последней Скачать торрент  


Надежда умирает последней / Hope Springs Eternal
Информация о фильме:
Название: Надежда умирает последней
Оригинальное название: Hope Springs Eternal
Год выхода: 2018
Жанр: драма, комедия
Режиссер: Джек Ньюэлл

В ролях: Миа Фрэмптон, Стоуни Блайден, Джульетт Анджело, Бет Лаке, Педж Вахдат, Ларойс Хоукинс, Кейт Рачески
Описание: 18-летняя Хоуп известна как «девушка, умирающая от рака», и она полностью смирилась со своей судьбой. Девушка старается не строить долгосрочных планов, ведет канал на YouTube, весело проводит время с друзьями и бойфрендом и постепенно становится популярной. Но однажды она узнает, что полностью вылечилась. Не зная, что делать со своим будущим, Хоуп скрывает правду. Но, как и большинство секретов, правда со временем выходит наружу. И теперь Хоуп остаётся лишь побороть свои страхи и принять грядущие изменения, чтобы с помощью родных и близких людей научиться жить полноценной жизнью.

rating

Страна: США
Студия: Gylden Productions
Продолжительность: 01:18:37
Перевод: Профессиональный (многоголосый, закадровый) - HDrezka Studio



Информация о файле:
Кодек: AVC
Формат: MKV
Качество: WEBRip-AVC
Видео: MPEG-4 AVC, 1024x572 (16:9), 23.976 fps, 2974 kbps, 0.212
Аудио RU: AC3, 6 ch, 48 kHz, 448 kbps



General
Unique ID : 9418623000684973471466309386817479526 (0x715F5F775C8A1C7BAEC0D62B7CBA366)
Complete name : D:uTorrentРипы_от_wolf1245_MediaBitHope.Springs.Eternal.2018.WEBRip-AVC_wolf1245 & MediaBit.mkv
Format : Matroska
Format version : Version 4
File size : 1.88 GiB
Duration : 1 h 18 min
Overall bit rate : 3 422 kb/s
Movie name : Hope.Springs.Eternal.2018.WEBRip-AVC_wolf1245 & MediaBit
Encoded date : UTC 2020-09-17 16:45:44
Writing application : mkvmerge v50.0.0 ('Awakenings') 64-bit
Writing library : libebml v1.4.0 + libmatroska v1.6.2

Video
ID : 1
Format : AVC
Format/Info : Advanced Video Codec
Format profile : High@L4.1
Format settings : CABAC / 11 Ref Frames
Format settings, CABAC : Yes
Format settings, Reference frames : 11 frames
Codec ID : V_MPEG4/ISO/AVC
Duration : 1 h 18 min
Bit rate : 2 974 kb/s
Width : 1 024 pixels
Height : 572 pixels
Display aspect ratio : 16:9
Frame rate mode : Constant
Frame rate : 23.976 (24000/1001) FPS
Color space : YUV
Chroma subsampling : 4:2:0
Bit depth : 8 bits
Scan type : Progressive
Bits/(Pixel*Frame) : 0.212
Stream size : 1.63 GiB (87%)
Title : wolf1245 & MediaBit
Writing library : x264 core 157 r2958 57baac4
Encoding settings : cabac=1 / ref=11 / deblock=1:-3:-3 / analyse=0x3:0x133 / me=umh / subme=11 / psy=1 / psy_rd=1.00:0.10 / mixed_ref=1 / me_range=48 / chroma_me=1 / trellis=2 / 8x8dct=1 / cqm=0 / deadzone=21,11 / fast_pskip=0 / chroma_qp_offset=-3 / threads=10 / lookahead_threads=2 / sliced_threads=0 / nr=0 / decimate=0 / interlaced=0 / bluray_compat=0 / constrained_intra=0 / bframes=11 / b_pyramid=2 / b_adapt=2 / b_bias=0 / direct=3 / weightb=1 / open_gop=0 / weightp=2 / keyint=240 / keyint_min=24 / scenecut=40 / intra_refresh=0 / rc_lookahead=60 / rc=2pass / mbtree=0 / bitrate=2974 / ratetol=1.0 / qcomp=0.60 / qpmin=0 / qpmax=69 / qpstep=4 / cplxblur=20.0 / qblur=0.5 / vbv_maxrate=50000 / vbv_bufsize=62500 / nal_hrd=none / filler=0 / ip_ratio=1.40 / pb_ratio=1.30 / aq=2:1.00
Language : English
Default : Yes
Forced : No

Audio
ID : 2
Format : AC-3
Format/Info : Audio Coding 3
Commercial name : Dolby Digital
Codec ID : A_AC3
Duration : 1 h 18 min
Bit rate mode : Constant
Bit rate : 448 kb/s
Channel(s) : 6 channels
Channel layout : L R C LFE Ls Rs
Sampling rate : 48.0 kHz
Frame rate : 31.250 FPS (1536 SPF)
Compression mode : Lossy
Stream size : 252 MiB (13%)
Title : MVO | HDrezka Studio
Language : Russian
Service kind : Complete Main
Default : Yes
Forced : No
Релиз от: &
pb.wtf



Скачать Надежда умирает последней через торрент https://c.radikal.ru/c04/2009/d0/94c10dab8cd6.jpg Скачать фильм Надежда умирает последней через торрент бесплантно в хорошем качестве Описание: 18-летняя Хоуп известна как «девушка, умирающая от рака», и она полностью смирилась со своей судьбой. Девушка старается не ... 10 10 2
Торрент: Зарегистрирован [2020-09-17 16:57] · скачан: 35 раз
Статус: √ проверено
Размер: 1.88 GB
Как cкачать? Как скачать Надежда умирает последней через торрент | UTorrent

28-11-2019 20:33  

Отключить всю рекламу на сайте

    Дорогой пользователь! Огромная просьба, поблагодарите релизера, оцените раздачу и оставьте свои комментарий, если Вы скачали Надежда умирает последней через торрент бесплатно! Внесите свою лепту в развитие PiratBit!
    Комментировать посты могут только пользователи прошедшие не сложную регистрацию
    Показать сообщения:    

    Надежда умирает последней через торрент
    Скачать бесплатно Надежда умирает последней
    Надежда умирает последней скачать торрент
    Надежда умирает последней смотреть онлайн
    Cкачать фильм Надежда умирает последней бесплатно
    Надежда умирает последней скачать торрент в хорошем качестве
    Надежда умирает последней смотреть онлайн бесплатно в хорошем качестве


    Вы не можете начинать темы
    Вы не можете отвечать на сообщения
    Вы не можете редактировать свои сообщения
    Вы не можете удалять свои сообщения
    Вы не можете голосовать в опросах
    Вы не можете прикреплять файлы к сообщениям
    Вы можете скачивать файлы