2 сезон

iTunes

MVO

1

2 сезон

iTunes

iTunes

1 сезон

RePack

30

Новинка

ВАЖНО

ИГРА 18+

pack

RePack

MK11
pack

Легкие деньги

RePack

jed

RePack

fifa19

RePack

RDR2

RePack

NEED FOR SPEED™ PAYBACK

4 сезон

9 сезон

Бесстыжие 9 сезон

Все сериалы

все сериалы на PB.wtf

RePack

FAR CRY 5

Anonymous, доброй ночи, мы не успеваем собрать деньги на оплату серверов за декабрь и январь, помогите нам пожалуйста в это трудное время. В качестве благодарности мы отключим Вам всю рекламу на сайте (укажите свой ник в строку Ваше имя)!

×
  
Magnet ссылка

Крыша мира / Top of the World (Сидни Дж. Фьюри) [1997 г., Триллер, Боевик, Криминал, WEB-DLRip 720p / 60 FPS, Профессиональный (двухголосый)] от R.G. HD-Films pb.wtf

Крыша мира через торрент pb.wtf

Раздают: 1 [ 0 KB/s ]
Размер: 3.72 GB | Добавлен: 4 мес. 1 д. назад | Торрент скачан:54 раза
Скачать  

18-09-2020 13:26 Крыша мира Скачать торрент  

Крыша мира / Top of the World
Год выпуска: 1997
Страна: США
Жанр: Триллер, Боевик, Криминал
Продолжительность: 01:38:48
Перевод: Профессиональный (двухголосый)

Режиссер: Сидни Дж. Фьюри

Премьера в мире: 10 сентября 1997

rating

В ролях: Питер Уэллер, Деннис Хоппер, Тиа Каррере, Дэвид Алан Грир, Джо Пантольяно, Кэри-Хироюки Тагава, Питер Койот, Джули МакКалло, Мартин Коув, Кевин Бернхардт

Описание: Бывший полицейский Рэй Мерсер выходит из тюрьмы и приезжает в Лас-Вегас, чтобы развестись с женой . Не удержавшись, он заходит в казино, где выигрывает 450 тыс. долларов. В этот же момент банда налетчиков совершает ограбление этого самого казино...


Качество: WEB-DLRip 720p / 60 FPS
Формат: MKV
Видео кодек: H.264
Аудио кодек: AC3
Видео: x264, 1280 x 720 ( 16:9 ), 5196 kbps, 60,000 fps, ( 0.094 bpp)
Аудио#1: Русский, AC-3, 48.0 KHz, 2 ch, 192 Kbps DVO-(НТВ)
Релиз от:

скриншот   скриншот   скриншот   скриншот   скриншот   скриншот  Автор рипа: slaventi-69
x264 [info]: frame I:1290 Avg QP:17.56 size: 71090
x264 [info]: frame P:82777 Avg QP:18.24 size: 22392
x264 [info]: frame B:271299 Avg QP:21.37 size: 7010
x264 [info]: consecutive B-frames: 2.3% 2.3% 5.3% 11.4% 73.2% 5.4%


Общее
Уникальный идентификатор : 226659928665251346734962820169847815258 (0xAA851D4811342A5BBCFB979A36543C5A)
Полное имя : F:\Top.of.the.World.(1997).WEB-DLRip.720p.(60 Fps).mkv
Формат : Matroska
Версия формата : Version 4
Размер файла : 3,72 Гбайт
Продолжительность : 1 ч. 38 м.
Общий поток : 5392 Кбит/сек
Название фильма : Крыша мира / Top of the World (1997) WEB-DLRip 720p (60 Fps)
Дата кодирования : UTC 2020-08-20 10:30:05
Программа кодирования : mkvmerge v9.1.0 ('Little Earthquakes') 64bit
Библиотека кодирования : libebml v1.3.3 + libmatroska v1.4.4

Видео
Идентификатор : 1
Формат : AVC
Формат/Информация : Advanced Video Codec
Профиль формата : High@L4.1
Настройки формата : CABAC / 8 Ref Frames
Параметр CABAC формата : Да
Параметр RefFrames формата : 8 кадров
Идентификатор кодека : V_MPEG4/ISO/AVC
Продолжительность : 1 ч. 38 м.
Битрейт : 5196 Кбит/сек
Ширина : 1280 пикселей
Высота : 720 пикселей
Соотношение сторон : 16:9
Режим частоты кадров : Постоянный
Частота кадров : 60,000 кадров/сек
Цветовое пространство : YUV
Субдискретизация насыщенности : 4:2:0
Битовая глубина : 8 бит
Тип развёртки : Прогрессивная
Бит/(Пиксели*Кадры) : 0.094
Размер потока : 3,58 Гбайт (96%)
Заголовок : slaventi-69 ( R.G. HD-Films | 60 fps )
Библиотека кодирования : x264 core 130 r2273 b3065e6
Настройки программы : cabac=1 / ref=8 / deblock=1:-1:-1 / analyse=0x3:0x133 / me=umh / subme=9 / psy=1 / psy_rd=1.00:0.00 / mixed_ref=1 / me_range=26 / chroma_me=1 / trellis=2 / 8x8dct=1 / cqm=0 / deadzone=21,11 / fast_pskip=1 / chroma_qp_offset=-2 / threads=6 / lookahead_threads=2 / sliced_threads=0 / nr=0 / decimate=1 / interlaced=0 / bluray_compat=0 / constrained_intra=0 / bframes=5 / b_pyramid=2 / b_adapt=2 / b_bias=0 / direct=2 / weightb=1 / open_gop=0 / weightp=2 / keyint=600 / keyint_min=60 / scenecut=40 / intra_refresh=0 / rc=crf / mbtree=0 / crf=19.0 / qcomp=0.60 / qpmin=0 / qpmax=69 / qpstep=4 / ip_ratio=1.40 / pb_ratio=1.30 / aq=1:1.00
Язык : English
Default : Да
Forced : Нет

Аудио
Идентификатор : 2
Формат : AC-3
Формат/Информация : Audio Coding 3
Коммерческое название : Dolby Digital
Идентификатор кодека : A_AC3
Продолжительность : 1 ч. 38 м.
Вид битрейта : Постоянный
Битрейт : 192 Кбит/сек
Каналы : 2 канала
Channel layout : L R
Частота : 48,0 КГц
Частота кадров : 31,250 кадров/сек (1536 SPF)
Битовая глубина : 16 бит
Метод сжатия : С потерями
Размер потока : 136 Мбайт (4%)
Заголовок : DVO-(НТВ)
Язык : Russian
ServiceKind/String : Complete Main
Default : Да
Forced : Нет

Просьба к переливающим на другие сайты, в оформлении указывайте пожалуйста авторство группы R.G. HD-Films pb.wtf



Скачать Крыша мира через торрент https://b.radikal.ru/b21/1906/6c/83f2ed20364c.jpg Скачать фильм Крыша мира через торрент бесплантно в хорошем качестве Описание: Бывший полицейский Рэй Мерсер выходит из тюрьмы и приезжает в Лас-Вегас, чтобы развестись с женой . Не удержавшись, он заходит в ... 10 10 3
Торрент: Зарегистрирован [2020-09-18 13:26] · скачан: 54 раз
Статус: √ проверено
Размер: 3.72 GB
Как cкачать? Как скачать Крыша мира через торрент | UTorrent

28-11-2019 20:33  

Отключить всю рекламу на сайте

18-09-2020 19:23 Крыша мира Скачать торрент  

Едрить, колотить. Вот это вспомню детство. Особенно Тиа pb.wtf



19-09-2020 18:46 Крыша мира Скачать торрент  

Большая благодарность релизеру за данный фильм!!! Сколько известных актёров в одном проекте!!! Пусть даже и класса "Б", но всё равно классный старый добрый экшн!!! Респект и уважение человеку за его труд!!!pb.wtf



    Дорогой пользователь! Огромная просьба, поблагодарите релизера, оцените раздачу и оставьте свои комментарий, если Вы скачали Крыша мира через торрент бесплатно! Внесите свою лепту в развитие PiratBit!
    Комментировать посты могут только пользователи прошедшие не сложную регистрацию
    Показать сообщения:    

    Крыша мира через торрент
    Скачать бесплатно Крыша мира
    Крыша мира скачать торрент
    Крыша мира смотреть онлайн
    Cкачать фильм Крыша мира бесплатно
    Крыша мира скачать торрент в хорошем качестве
    Крыша мира смотреть онлайн бесплатно в хорошем качестве


    Вы не можете начинать темы
    Вы не можете отвечать на сообщения
    Вы не можете редактировать свои сообщения
    Вы не можете удалять свои сообщения
    Вы не можете голосовать в опросах
    Вы не можете прикреплять файлы к сообщениям
    Вы можете скачивать файлы