2 сезон

iTunes

MVO

1

2 сезон

iTunes

iTunes

1 сезон

RePack

30

Ultimate

ВАЖНО

ИГРА 18+

pack

RePack

MK11
pack

Легкие деньги

RePack

jed

RePack

fifa19

RePack

RDR2

RePack

NEED FOR SPEED™ PAYBACK

4 сезон

9 сезон

Бесстыжие 9 сезон

Все сериалы

все сериалы на PB.wtf

RePack

FAR CRY 5

Anonymous, доброе утро, мы не успеваем собрать деньги на оплату серверов за декабрь и январь, помогите нам пожалуйста в это трудное время. В качестве благодарности мы отключим Вам всю рекламу на сайте (укажите свой ник в строку Ваше имя)!

×
  
Magnet ссылка

Шугалей 2 (Максим Бриус) [2020, Детектив, приключения, WEB-DL 1080p] [iTunes] pb.wtf

Шугалей 2 через торрент pb.wtf

Раздают: 1 [ 0 KB/s ]
Размер: 4.09 GB | Добавлен: 3 мес. 20 д. назад | Торрент скачан:77 раз
Скачать  

19-09-2020 03:28 Шугалей 2 Скачать торрент  

Шугалей 2
Год выпуска: 2020
Страна: Россия, Тунис
Выпущено: «Кино альянс»
Жанр: Детектив, приключения
Продолжительность: 02:04:17
Перевод: Не требуется | iTunes
Субтитры: отсутствуют

Режиссер: Максим Бриус



В ролях: Кирилл Полухин, Олег Абалян, Сергей Яценюк, Олег Метелев, Вячеслав Аркунов, Мохамед Али Бен Джема, Халед Хуисса, Андрей Смелов

Описание: Российские социологи, Максим Шугалей и его спутник и переводчик Самер Суэйфан, отправляются в страну, разрываемую на части воинствующими группировками, по официальному приглашению. Их задача — проведение исследования, которое должно было бы положить конец боевым действиям. Однако в ходе работы в их руки попадает информация, которая может дорого стоить «марионеточному» правительству и не должна просочиться за пределы Ливии. В результате похищения русские специалисты оказываются в частной тюрьме и больше года, переживая пытки и унижения, ждут хотя бы официального обвинения. Дипломатические попытки мирно решить вопрос заходят в тупик, и российская сторона начинает готовить спасательную операцию.

Качество: WEB-DL 1080p
Формат: MKV

Видео: MPEG-4 AVC, 4577 Kb/s, 1920x802
Аудио: 48 kHz, Advanced Audio Codec, 2/0 (L, R) ch, ~160 Kbps
скриншот  скриншот  скриншот  скриншот  

Video
ID: 1
Format: AVC
Format/Info: Advanced Video Codec
Format profile: High@L4
Format settings: CABAC / 5 Ref Frames
Format settings, CABAC: Yes
Format settings, Reference: 5 frames
Codec ID: V_MPEG4/ISO/AVC
Duration: 2 h 4 min
Bit rate: 4 577 kb/s
Width: 1 920 pixels
Height: 802 pixels
Display aspect ratio: 2.40:1
Frame rate mode: Constant
Frame rate: 25.000 FPS
Color space: YUV
Chroma subsampling: 4:2:0
Bit depth: 8 bits
Scan type: Progressive
Bits/(Pixel*Frame): 0.119
Stream size: 3.97 GiB (97%)
Title: SHUGALEJ2_2020_WEB-DL_1080p-BLUEBIRD
Language: English
Default: Yes
Forced: No
Color range: Limited
Color primaries: BT.709
Transfer characteristics: BT.709
Matrix coefficients: BT.709

Audio
ID: 2
Format: AAC LC
Format/Info: Advanced Audio Codec Low Complexity
Codec ID: A_AAC-2
Duration: 2 h 4 min
Bit rate: 126 kb/s
Channel(s): 2 channels
Channel layout: L R
Sampling rate: 48.0 kHz
Frame rate: 46.875 FPS (1024 SPF)
Compression mode: Lossy
Delay relative to video: -40 ms
Stream size: 112 MiB (3%)
Title: [ORIGINAL] AAC 2.0 @ 160 kbps
Language: Russian
Default: Yes
Forced: No

Menu
00:00:00.000: en:Глава 1
00:08:03.280: en:Глава 2
00:17:35.080: en:Глава 3
00:25:46.240: en:Глава 4
00:35:03.240: en:Глава 5
00:44:04.240: en:Глава 6
00:52:38.240: en:Глава 7
01:01:45.240: en:Глава 8
01:10:07.440: en:Глава 9
01:18:54.360: en:Глава 10
01:26:37.360: en:Глава 11
01:34:45.560: en:Глава 12
01:43:13.560: en:Глава 13
01:52:25.360: en:Глава 14

pb.wtf



Скачать Шугалей 2 через торрент https://b.radikal.ru/b29/2009/d6/67466b5570a1.jpg Скачать фильм Шугалей 2 через торрент бесплантно в хорошем качестве Описание: Российские социологи, Максим Шугалей и его спутник и переводчик Самер Суэйфан, отправляются в страну, разрываемую на части ... 6.6 10 8
Торрент: Зарегистрирован [2020-09-30 09:32] · скачан: 77 раз
Статус: T временная
Размер: 4.09 GB
Как cкачать? Как скачать Шугалей 2 через торрент | UTorrent

% Раздел Тема Автор DL S | L
Наши фильмы (HD, WEB-DL 720p, 1080p) [ 3.07 GB ] Шугалей 2 [2020 HDTVRip 720p] bober100 Скачать
1 | 0
Наши новые фильмы 2020 - 2021 [ 1.47 GB ] Шугалей 2 [2020 WEB-DLRip] bober100 Скачать
1 | 0
Наши новые фильмы 2020 - 2021 [ 2.05 GB ] Шугалей 2 [2020 HDTVRip-AVC] bober100 Скачать
1 | 0
Наши новые фильмы 2020 - 2021 [ 1.46 GB ] Шугалей 2 [2020 HDTVRip] bober100 Скачать
5 | 0
Наши фильмы (HD, WEB-DL 720p, 1080p) [ 4.18 GB ] Шугалей 2 [2020 HDTV Оригинал] Бумер Скачать
2 | 0
Наши новые фильмы 2020 - 2021 [ 1.63 GB ] Шугалей 2 [2020 SATRip] Russian Mafia Скачать
1 | 0

28-11-2019 20:33  

Отключить всю рекламу на сайте

02-10-2020 09:15 Шугалей 2 Скачать торрент  

чет я не въехал, вышло сразу 2 фильма Шугалей у разных режиссеров?pb.wtf



    Дорогой пользователь! Огромная просьба, поблагодарите релизера, оцените раздачу и оставьте свои комментарий, если Вы скачали Шугалей 2 через торрент бесплатно! Внесите свою лепту в развитие PiratBit!
    Комментировать посты могут только пользователи прошедшие не сложную регистрацию
    Показать сообщения:    

    Шугалей 2 через торрент
    Скачать бесплатно Шугалей 2
    Шугалей 2 скачать торрент
    Шугалей 2 смотреть онлайн
    Cкачать фильм Шугалей 2 бесплатно
    Шугалей 2 скачать торрент в хорошем качестве
    Шугалей 2 смотреть онлайн бесплатно в хорошем качестве


    Вы не можете начинать темы
    Вы не можете отвечать на сообщения
    Вы не можете редактировать свои сообщения
    Вы не можете удалять свои сообщения
    Вы не можете голосовать в опросах
    Вы не можете прикреплять файлы к сообщениям
    Вы можете скачивать файлы