Ссылка на приватное зеркало нашего сайта всего за 1$. Внимание количество ограничено!!!

2 сезон

iTunes

1 сезон

1

iTunes

iTunes

iTunes

1 сезон

RePack

30

ИГРА 18+

pack

ВАЖНО

!!Акция!!

Alien_RageХит недели

RePack

MK11
pack

Забери бонус

RePack

jed

!!Акция!!

Alien_Rage

RePack

fifa19

RePack

Assassins Creed: Odyssey

RePack

NEED FOR SPEED™ PAYBACK

4 сезон

9 сезон

Бесстыжие 9 сезон

Все сериалы

все сериалы на PB.wtf

RePack

FAR CRY 5
  

Бешенство / Cuerdas / Prey (Хосе Луис Монтесинос) [2019, ужасы, триллер, драма, WEB-DL 720p] DUB [iTunes] pb.wtf

Бешенство через торрент pb.wtf

Размер: 2.7 GB | Добавлен: 1 мес. 1 д. назад | Торрент скачан:23 раза
Скачать  

19-09-2020 17:26 Бешенство Скачать торрент  

Бешенство | Cuerdas | Prey
Год выпуска: 2019
Страна: Испания
Выпущено: Bastian Films, Gaia Audiovisuals S.L., Institut Valencià de Cultura
Жанр: ужасы, триллер, драма
Продолжительность: 01:26:57
Перевод: Дублированный | iTunes
Субтитры: отсутствуют

Режиссер: Хосе Луис Монтесинос

rating

В ролях: Паула дель Рио, Мигель Анхель Хеннер, Хорди Агилар, Ана Терраса, Ирен Терраса, Рубен Гарсия, Луис Поркар, Лаура Виолета Триллес, Дарио Торрент, Айна Химено

Описание: Старик привозит парализованную дочку в родной дом, где собирается ухаживать за ней при помощи умного пса Атоса. Но когда у отца случается сердечный приступ, а собаку кусает бешеная летучая мышь, девушке становится ясно, что ей придется самой сражаться за свою жизнь.

Качество: WEB-DL 720p
Формат: MKV

Видео: MPEG-4 AVC, 4060 Kb/s, 1280x536, 24 fps
Аудио: 48 kHz, AC3 Dolby Digital, 3/2 (L, C, R, l, r) + LFE ch, ~384 kbps
скриншот  скриншот  скриншот  скриншот  

Complete name: Beshenstvo.2019.WEB-DL.720p.ELEKTRI4KA.UNIONGANG.mkv
Format: Matroska
Format version: Version 4 / Version 2
File size: 2.70 GiB
Duration: 1 h 26 min
Overall bit rate: 4 445 kb/s
Movie name: .ELEKTRI4KA.UNIONGANG.
Encoded date: UTC 2020-09-19 14:46:23
Writing application: mkvmerge v8.3.0 ('Over the Horizon') 64bit
Writing library: libebml v1.3.1 + libmatroska v1.4.2

Video
ID: 1
Format: AVC
Format/Info: Advanced Video Codec
Format profile: Main@L3.1
Format settings, CABAC: No
Format settings, Reference frames: 2 frames
Codec ID: V_MPEG4/ISO/AVC
Duration: 1 h 26 min
Bit rate: 4 060 kb/s
Width: 1 280 pixels
Height: 536 pixels
Display aspect ratio: 2.40:1
Frame rate mode: Constant
Frame rate: 24.000 FPS
Color space: YUV
Chroma subsampling: 4:2:0
Bit depth: 8 bits
Scan type: Progressive
Bits/(Pixel*Frame): 0.247
Stream size: 2.47 GiB (91%)
Title: .ELEKTRI4KA.UNIONGANG.
Language: English
Default: Yes
Forced: No
Color range: Limited
Color primaries: BT.709
Transfer characteristics: BT.709
Matrix coefficients: BT.709

Audio
ID: 2
Format: AC-3
Format/Info: Audio Coding 3
Mode extension: CM (complete main)
Format settings, Endianness: Big
Codec ID: A_AC3
Duration: 1 h 26 min
Bit rate mode: Constant
Bit rate: 384 kb/s
Channel(s): 6 channels
Channel positions: Front: L C R, Side: L R, LFE
Sampling rate: 48.0 kHz
Frame rate: 31.250 FPS (1536 spf)
Bit depth: 16 bits
Compression mode: Lossy
Stream size: 239 MiB (9%)
Title: iTunes
Language: Russian
Default: Yes
Forced: No

Menu
00:00:00.000: en:00:00:00.000
00:08:24.958: en:00:08:24.958
00:16:40.208: en:00:16:40.208
00:25:46.999: en:00:25:46.999
00:35:02.790: en:00:35:02.790
00:44:48.415: en:00:44:48.415
00:54:21.706: en:00:54:21.706
01:02:50.331: en:01:02:50.331
01:12:03.331: en:01:12:03.331
01:20:25.664: en:01:20:25.664

pb.wtf



Скачать Бешенство через торрент https://i5.imageban.ru/out/2020/09/19/5500135626706a73c0f249f048ee227e.png Скачать фильм Бешенство через торрент бесплантно в хорошем качестве Описание: Старик привозит парализованную дочку в родной дом, где собирается ухаживать за ней при помощи умного пса Атоса. Но когда у отца ... 10 10 3
Торрент: Зарегистрирован [2020-09-19 17:26] · скачан: 23 раз
Статус: √ проверено
Размер: 2.7 GB
Как cкачать? Как скачать Бешенство через торрент | qTorrent

% Раздел Тема Автор DL S | L
Фильмы 2019-2020 [DVDrip, WEB-DLRip, HDrip] (DUB, MVO) [ 745 MB ] Бешенство / Cuerdas / Prey [2019 WEB-DLRip] bober100 Скачать
4 | 0
Фильмы 2019-2020 [DVDrip, WEB-DLRip, HDrip] (DUB, MVO) [ 1.49 GB ] Бешенство / Cuerdas / Prey [2019 WEB-DLRip-AVC] от MediaBit Lithuania Скачать
4 | 0
Фильмы (WEB-DL 720p, 1080p) [ 3 GB ] Бешенство / Cuerdas / Prey [2019 WEB-DL 1080p] bober100 Скачать
6 | 0
Фильмы 2019-2020 [DVDrip, WEB-DLRip, HDrip] (DUB, MVO) [ 1.37 GB ] Бешенство / Cuerdas / Prey [2019 WEB-DLRip] bober100 Скачать
4 | 0

28-11-2019 20:33  

Отключить всю рекламу на сайте

    Дорогой пользователь! Огромная просьба, поблагодарите релизера, оцените раздачу и оставьте свои комментарий, если Вы скачали Бешенство через торрент бесплатно! Внесите свою лепту в развитие PiratBit!
    Комментировать посты могут только пользователи прошедшие не сложную регистрацию
    Показать сообщения:    

    Бешенство через торрент
    Скачать бесплатно Бешенство
    Бешенство скачать торрент
    Бешенство смотреть онлайн
    Cкачать фильм Бешенство бесплатно
    Бешенство скачать торрент в хорошем качестве
    Бешенство смотреть онлайн бесплатно в хорошем качестве


    Вы не можете начинать темы
    Вы не можете отвечать на сообщения
    Вы не можете редактировать свои сообщения
    Вы не можете удалять свои сообщения
    Вы не можете голосовать в опросах
    Вы не можете прикреплять файлы к сообщениям
    Вы можете скачивать файлы