Ссылка на приватное зеркало нашего сайта всего за 1$. Внимание количество ограничено!!!

2 сезон

iTunes

1 сезон

1

iTunes

iTunes

iTunes

1 сезон

RePack

30

ИГРА 18+

pack

ВАЖНО

!!Акция!!

Alien_RageХит недели

RePack

MK11
pack

Забери бонус

RePack

jed

!!Акция!!

Alien_Rage

RePack

fifa19

RePack

Assassins Creed: Odyssey

RePack

NEED FOR SPEED™ PAYBACK

4 сезон

9 сезон

Бесстыжие 9 сезон

Все сериалы

все сериалы на PB.wtf

RePack

FAR CRY 5
  

Дьявол всегда здесь / The Devil All the Time (Антонио Кампос) [2020, триллер, драма, криминал, WEB-DL 1080p] MVO [NewComers] pb.wtf

Дьявол всегда здесь через торрент pb.wtf

Раздают: 18 [ 1 MB/s ]
Размер: 7.64 GB | Добавлен: 1 мес. 6 д. назад | Торрент скачан:241 раз
Скачать  

19-09-2020 18:56 Дьявол всегда здесь Скачать торрент  

Дьявол всегда здесь | The Devil All the Time
Год выпуска: 2020
Страна: США
Студия: Nine Stories Productions
Жанр: триллер, драма, криминал
Продолжительность: 02:18:52
Перевод: Профессиональный (многоголосый) | NewComers
Субтитры: Софтсаб на надписи, форсированный

Режиссер: Антонио Кампос

rating


В ролях: Том Холланд, Роберт Паттинсон, Билл Скарсгард, Хейли Беннетт, Райли Кио, Гарри Меллинг, Себастиан Стэн, Миа Васиковска, Элайза Сканлен, Джейсон Кларк и другие.

Описание: Молодой Уиллард Рассел возвращается с полей боёв Второй мировой и с первого взгляда влюбляется в работницу кафе Шарлотту. В этом же заведении находят друг друга фотограф-любитель Карл и официантка Сэнди. Хотя мать Уилларда активно сватает сыну местную сироту Хэлен, парень не может выкинуть из головы Шарлотту - влюблённые женятся, и у них рождается сын Арвин. Хэлен же не может противостоять харизме проповедника Роя, выходит за него замуж, и на свет появляется девочка Ленора. Вскоре судьбы молодых семей обернутся самым трагичным образом, а дети станут сводными братом и сестрой в доме матери Уилларда.

Качество: WEB-DL 1080p
Формат: MKV

Видео: MPEG-4 AVC, ~ 1920x1080, ~ 7500 Кбит/сек, 24, 000 fps
Аудио: Русский / AC-3 / 5.1 / 448 kbs
скриншот   скриншот   скриншот   скриншот  

Общее
Уникальный идентификатор : 326617136263207720773632104625004631373 (0xF5B82C1C5F63DEF96D60E96CCC3C554D)
Полное имя : D:\The.Devil.All.the.Time.2020.1080p.NewComers.mkv
Формат : Matroska
Версия формата : Version 4 / Version 2
Размер файла : 7,64 Гбайт
Продолжительность : 2 ч. 18 м.
Режим общего битрейта : Переменный
Общий поток : 7872 Кбит/сек
Дата кодирования : UTC 2020-09-18 10:48:21
Программа кодирования : mkvmerge v45.0.0 ('Heaven in Pennies') 64-bit
Библиотека кодирования : libebml v1.3.10 + libmatroska v1.5.2

Видео
Идентификатор : 1
Формат : AVC
Формат/Информация : Advanced Video Codec
Профиль формата : Main@L4
Параметр CABAC формата : Да
Параметр RefFrames формата : 3 кадра
Идентификатор кодека : V_MPEG4/ISO/AVC
Продолжительность : 2 ч. 18 м.
Вид битрейта : Переменный
Битрейт : 7500 Кбит/сек
Максимальный битрейт : 11,2 Мбит/сек
Ширина : 1920 пикселей
Высота : 1080 пикселей
Соотношение сторон : 16:9
Режим частоты кадров : Постоянный
Частота кадров : 24,000 кадра/сек
Цветовое пространство : YUV
Субдискретизация насыщенности : 4:2:0
Битовая глубина : 8 бит
Тип развёртки : Прогрессивная
Бит/(Пиксели*Кадры) : 0.151
Размер потока : 7,05 Гбайт (92%)
Библиотека кодирования : x264 core 148 r2722 1b0121b
Настройки программы : cabac=1 / ref=3 / deblock=1:0:0 / analyse=0x1:0x111 / me=umh / subme=10 / psy=1 / psy_rd=1.00:0.00 / mixed_ref=1 / me_range=24 / chroma_me=1 / trellis=2 / 8x8dct=0 / cqm=0 / deadzone=21,11 / fast_pskip=1 / chroma_qp_offset=-2 / threads=6 / lookahead_threads=1 / sliced_threads=0 / nr=0 / decimate=1 / interlaced=0 / bluray_compat=0 / stitchable=1 / constrained_intra=0 / bframes=2 / b_pyramid=0 / b_adapt=2 / b_bias=0 / direct=3 / weightb=1 / open_gop=0 / weightp=2 / keyint=250 / keyint_min=24 / scenecut=0 / intra_refresh=0 / rc_lookahead=48 / rc=2pass / mbtree=1 / bitrate=7500 / ratetol=1.0 / qcomp=0.50 / qpmin=6 / qpmax=51 / qpstep=4 / cplxblur=20.0 / qblur=0.5 / vbv_maxrate=11250 / vbv_bufsize=15000 / nal_hrd=vbr / filler=0 / ip_ratio=1.40 / aq=1:1.00
Default : Да
Forced : Нет

Аудио
Идентификатор : 2
Формат : AC-3
Формат/Информация : Audio Coding 3
Расширение режима : CM (complete main)
Параметр Endianness формата : Big
Идентификатор кодека : A_AC3
Продолжительность : 2 ч. 18 м.
Вид битрейта : Постоянный
Битрейт : 448 Кбит/сек
Каналы : 6 каналов
Расположение каналов : Front: L C R, Side: L R, LFE
Частота : 48,0 КГц
Частота кадров : 31,250 кадров/сек (1536 spf)
Метод сжатия : С потерями
Размер потока : 445 Мбайт (6%)
Заголовок : NewComers
Язык : Russian
Default : Да
Forced : Да

Текст
Идентификатор : 3
Формат : UTF-8
Идентификатор кодека : S_TEXT/UTF8
Идентификатор кодека/Информация : UTF-8 Plain Text
Заголовок : надписи
Язык : Russian
Default : Да
Forced : Да

pb.wtf



Скачать Дьявол всегда здесь через торрент https://img11.lostpic.net/2020/09/19/6c7001f03cecb3161da07ac90e397869.jpg Скачать фильм Дьявол всегда здесь через торрент бесплантно в хорошем качестве Описание: Молодой Уиллард Рассел возвращается с полей боёв Второй мировой и с первого взгляда влюбляется в работницу кафе Шарлотту. В этом ... 9.7 10 6
Info! Золотая раздача, скачанное не засчитывается.
Торрент: Зарегистрирован [2020-09-19 18:56] · скачан: 241 раз
Статус: √ проверено
Размер: 7.64 GB
Как cкачать? Как скачать Дьявол всегда здесь через торрент | qTorrent

% Раздел Тема Автор DL S | L
Фильмы 2019-2020 [DVDrip, WEB-DLRip, HDrip] (DUB, MVO) [ 1.86 GB ] Дьявол всегда здесь / The Devil All the Time [2020 WEB-DLRip-AVC] [MVO] [NewComers] от MediaBit Lithuania Скачать
26 | 0
Фильмы (WEB-DL 720p, 1080p) [ 8.38 GB ] Дьявол всегда здесь / The Devil All the Time [2020 WEB-DL 1080p] MVO [HDRezka Studio] bober100 Скачать
18 | 0
Фильмы 2019-2020 [DVDrip, WEB-DLRip, HDrip] (DUB, MVO) [ 2.17 GB ] Дьявол всегда здесь / The Devil All the Time [2020 WEB-DLRip-AVC] MVO [HDRezka Studio] bober100 Скачать
19 | 0
Фильмы 2019-2020 [DVDrip, WEB-DLRip, HDrip] (DUB, MVO) [ 1.46 GB ] Дьявол всегда здесь / The Devil All the Time [2020 WEB-DLRip] MVO [HDRezka Studio] bober100 Скачать
18 | 0
Фильмы 2019-2020 [DVDrip, WEB-DLRip, HDrip] (DUB, MVO) [ 2.18 GB ] Дьявол всегда здесь / The Devil All the Time [2020 WEB-DLRip] [MVO] killermax2013 Скачать
16 | 0
Фильмы (WEB-DL 720p, 1080p) [ 4.24 GB ] Дьявол всегда здесь / The Devil All the Time [2020 WEB-DL 720p] MVO [NewComers] bober100 Скачать
8 | 0

28-11-2019 20:33  

Отключить всю рекламу на сайте

    Дорогой пользователь! Огромная просьба, поблагодарите релизера, оцените раздачу и оставьте свои комментарий, если Вы скачали Дьявол всегда здесь через торрент бесплатно! Внесите свою лепту в развитие PiratBit!
    Комментировать посты могут только пользователи прошедшие не сложную регистрацию
    Показать сообщения:    

    Дьявол всегда здесь через торрент
    Скачать бесплатно Дьявол всегда здесь
    Дьявол всегда здесь скачать торрент
    Дьявол всегда здесь смотреть онлайн
    Cкачать фильм Дьявол всегда здесь бесплатно
    Дьявол всегда здесь скачать торрент в хорошем качестве
    Дьявол всегда здесь смотреть онлайн бесплатно в хорошем качестве


    Вы не можете начинать темы
    Вы не можете отвечать на сообщения
    Вы не можете редактировать свои сообщения
    Вы не можете удалять свои сообщения
    Вы не можете голосовать в опросах
    Вы не можете прикреплять файлы к сообщениям
    Вы можете скачивать файлы