Ссылка на приватное зеркало нашего сайта всего за 1$. Внимание количество ограничено!!!

2 сезон

iTunes

1 сезон

1

iTunes

iTunes

iTunes

1 сезон

RePack

30

ИГРА 18+

pack

ВАЖНО

!!Акция!!

Alien_RageХит недели

RePack

MK11
pack

Забери бонус

RePack

jed

!!Акция!!

Alien_Rage

RePack

fifa19

RePack

Assassins Creed: Odyssey

RePack

NEED FOR SPEED™ PAYBACK

4 сезон

9 сезон

Бесстыжие 9 сезон

Все сериалы

все сериалы на PB.wtf

RePack

FAR CRY 5
  

Танец для двоих / Серии: 1-2 из 2 (Алексей Карелин) [2020, Мелодрама, HDTVRip 720p] pb.wtf

Танец для двоих через торрент pb.wtf

Раздают: 1 [ 0 KB/s ]
Размер: 4.65 GB | Добавлен: 1 мес. 7 д. назад | Торрент скачан:8 раз
Скачать  

20-09-2020 17:16 Танец для двоих Скачать торрент  

Танец для двоих
Год выпуска: 2020
Страна: Россия
Производство: ООО «Паламеда Продакшн», Кинокомпания «Фабула Продакшн»
Жанр: Мелодрама
Продолжительность: ~ 01:25:00 серия
Субтитры: отсутствуют

Режиссер: Алексей Карелин

В ролях: Валерия Ланская, Илья Алексеев, Артём Григорьев, Алиса Петрова, Вероника Пляшкевич, Руслан Чернецкий, Зоя Белохвостик, Василий Рукша, Ирина Савошко, Елена Барсукова

Описание: Лера – счастлива замужем, растит сына Никиту и преподает танцы в лучшей студии города. Там же занимается ее сын. Лера гордится им и готовит к танцевальному конкурсу. Но Никита решает покатается на роликах, вылетает на проезжую часть и ломает ногу. А потом рассказывает матери, что его сбил мужчина. Лера решает во что бы то ни стало разыскать и наказать виновного. В довершение ко всему ее муж Андрей сообщает о ей разводе, он завел роман с начальницей и уходит из семьи. Жизнь Леры рушится. Тем временем Анжела решает выучить свадебный танец, приводит своего жениха Илью в студию к Лере и заставляет его учиться танцевать. Лера вскоре влюбляется в своего нового ученика и не подозревает, что он тот самый человек, которого она ищет…

Качество: HDTVRip 720p
Формат: MKV

Видео: 1280x720 (16:9), 25 fps, AVC MPEG-4 (x264), High@L4.1 ~ 3500 kbps , 0.152 bit/pixel
Аудио: 48 kHz, AC3, 2 ch, ~ 192 kbps avg
скриншот  скриншот  скриншот  скриншот  

Общее
Уникальный идентификатор : 247658333870892126489286312083565926575 (0xBA5142971632CA6C87AB80B3B09D58AF)
Полное имя : D:\Tanec.dlya.dvoih.2019.HDTVRip.(720p).ExKinoRay\Tanec.dlya.dvoih.E01.2019.HDTVRip.(720p).ExKinoRay.mkv
Формат : Matroska
Версия формата : Version 2
Размер файла : 2,21 Гбайт
Продолжительность : 1 ч. 25 м.
Общий поток : 3694 Кбит/сек
Дата кодирования : UTC 2020-09-20 09:47:25
Программа кодирования : mkvmerge v7.8.0 ('River Man') 32bit built on Apr 3 2015 12:11:22
Библиотека кодирования : libebml v1.3.1 + libmatroska v1.4.2

Видео
Идентификатор : 1
Формат : AVC
Формат/Информация : Advanced Video Codec
Профиль формата : High@L4.1
Параметр CABAC формата : Да
Параметр RefFrames формата : 9 кадров
Идентификатор кодека : V_MPEG4/ISO/AVC
Продолжительность : 1 ч. 25 м.
Битрейт : 3500 Кбит/сек
Ширина : 1280 пикселей
Высота : 720 пикселей
Соотношение сторон : 16:9
Режим частоты кадров : Постоянный
Частота кадров : 25,000 кадров/сек
Цветовое пространство : YUV
Субдискретизация насыщенности : 4:2:0
Битовая глубина : 8 бит
Тип развёртки : Прогрессивная
Бит/(Пиксели*Кадры) : 0.152
Размер потока : 2,05 Гбайт (93%)
Библиотека кодирования : x264 core 146 r2538 121396c
Настройки программы : cabac=1 / ref=9 / deblock=1:-3:-3 / analyse=0x3:0x113 / me=umh / subme=11 / psy=1 / psy_rd=1.00:0.20 / mixed_ref=1 / me_range=32 / chroma_me=1 / trellis=2 / 8x8dct=1 / cqm=0 / deadzone=21,11 / fast_pskip=1 / chroma_qp_offset=-3 / threads=24 / lookahead_threads=10 / sliced_threads=0 / nr=0 / decimate=0 / interlaced=0 / bluray_compat=0 / constrained_intra=0 / bframes=10 / b_pyramid=2 / b_adapt=2 / b_bias=0 / direct=3 / weightb=1 / open_gop=0 / weightp=2 / keyint=250 / keyint_min=25 / scenecut=40 / intra_refresh=0 / rc_lookahead=60 / rc=2pass / mbtree=1 / bitrate=3500 / ratetol=1.0 / qcomp=0.60 / qpmin=0 / qpmax=69 / qpstep=4 / cplxblur=20.0 / qblur=0.5 / vbv_maxrate=14000 / vbv_bufsize=14000 / nal_hrd=none / filler=0 / ip_ratio=1.40 / aq=3:1.40
Default : Да
Forced : Нет
Цветовой диапазон : Limited
Основные цвета : BT.709
Характеристики трансфера : BT.709
Коэффициенты матрицы : BT.709

Аудио
Идентификатор : 2
Формат : AC-3
Формат/Информация : Audio Coding 3
Расширение режима : CM (complete main)
Параметр Endianness формата : Big
Идентификатор кодека : A_AC3
Продолжительность : 1 ч. 25 м.
Вид битрейта : Постоянный
Битрейт : 192 Кбит/сек
Каналы : 2 канала
Расположение каналов : Front: L R
Частота : 48,0 КГц
Частота кадров : 31,250 кадров/сек (1536 spf)
Метод сжатия : С потерями
Размер потока : 117 Мбайт (5%)
Default : Да
Forced : Нет

pb.wtf



Скачать Танец для двоих через торрент https://i112.fastpic.ru/big/2020/0919/53/23171a33bec00f3c71a84424b21f5a53.jpg Скачать фильм Танец для двоих через торрент бесплантно в хорошем качестве Описание: Лера – счастлива замужем, растит сына Никиту и преподает танцы в лучшей студии города. Там же занимается ее сын. Лера гордится им ... 10 10 2
Торрент: Зарегистрирован [2020-09-20 17:16] · скачан: 8 раз
Статус: √ проверено
Размер: 4.65 GB
Как cкачать? Как скачать Танец для двоих через торрент | qTorrent

% Раздел Тема Автор DL S | L
Наши сериалы [ 9.64 GB ] Танец для двоих / Серии: 1-2 из 2 [2020 Мело HDTV 1080i] bober100 Скачать
1 | 0
Наши сериалы [ 2.39 GB ] Танец для двоих / Серии: 1-2 из 2 [2020 Мело SATRip] bober100 Скачать
2 | 0

28-11-2019 20:33  

Отключить всю рекламу на сайте

    Дорогой пользователь! Огромная просьба, поблагодарите релизера, оцените раздачу и оставьте свои комментарий, если Вы скачали Танец для двоих через торрент бесплатно! Внесите свою лепту в развитие PiratBit!
    Комментировать посты могут только пользователи прошедшие не сложную регистрацию
    Показать сообщения:    

    Танец для двоих через торрент
    Скачать бесплатно Танец для двоих
    Танец для двоих скачать торрент
    Танец для двоих смотреть онлайн
    Cкачать фильм Танец для двоих бесплатно
    Танец для двоих скачать торрент в хорошем качестве
    Танец для двоих смотреть онлайн бесплатно в хорошем качестве


    Вы не можете начинать темы
    Вы не можете отвечать на сообщения
    Вы не можете редактировать свои сообщения
    Вы не можете удалять свои сообщения
    Вы не можете голосовать в опросах
    Вы не можете прикреплять файлы к сообщениям
    Вы можете скачивать файлы