Ссылка на приватное зеркало нашего сайта всего за 1$. Внимание количество ограничено!!!

2 сезон

iTunes

1 сезон

1

iTunes

iTunes

iTunes

1 сезон

RePack

30

ИГРА 18+

pack

ВАЖНО

!!Акция!!

Alien_RageХит недели

RePack

MK11
pack

Забери бонус

RePack

jed

!!Акция!!

Alien_Rage

RePack

fifa19

RePack

Assassins Creed: Odyssey

RePack

NEED FOR SPEED™ PAYBACK

4 сезон

9 сезон

Бесстыжие 9 сезон

Все сериалы

все сериалы на PB.wtf

RePack

FAR CRY 5
  

В паутине лжи / Spider / Araña (Андрес Вуд) [2019, Триллер, драма, криминал, WEB-DL 1080p] DUB [iTunes] pb.wtf

В паутине лжи через торрент pb.wtf

Раздают: 4 [ 0 KB/s ]
Размер: 3.65 GB | Добавлен: 1 мес. 3 д. назад | Торрент скачан:76 раз
Скачать  

22-09-2020 12:34 В паутине лжи Скачать торрент  

В паутине лжи | Spider | Araña
Год выпуска: 2019
Страна: Чили, Аргентина, Бразилия
Студия: Bossa Nova Films, Magma Cine, Wood Producciones
Жанр: Триллер, драма, криминал
Продолжительность: 01:45:19
Перевод: Профессиональный многоголосый | iTunes
Субтитры: отсутствуют

Режиссер: Андрес Вуд

rating

В ролях: Мерседес Моран, Мария Вальверде, Марсело Алонсо, Педро Фонтейн, Габриель Урзуа, Фелипе Армас, Кайу Блат, Мария Грасия Оменя, Марио Хортон, Серхио Пинья

Описание: 1970 год. Инес, Аугусто и Жерардо по 20 лет. Они члены ультраправой группировки, которая при поддержке ЦРУ, хочет свергнуть диктатора. Вместе они совершат политическое преступление, которое изменит жизнь страны и навсегда разрушит их любовный треугольник. 40 лет спустя прошлое возвращается и не все готовы платить по счетам.

Качество: WEB-DL 1080p
Формат: MKV

Видео: MPEG-4 AVC, 1920x804, 4578 Kbps, 24.000 fps
Аудио Russian: AC3, 48.0 KHz, 6 ch, 384 kbps - iTunes
скриншот  скриншот  скриншот  скриншот  скриншот  

General
Unique ID : 14547055595428637842032682776965144899 (0xAF1A9371FFD9C00A2226E79A64FE143)
Complete name : SPIDER_2019_WEB-DL_1080p-BLUEBIRD.mkv
Format : Matroska
Format version : Version 4
File size : 3.65 GiB
Duration : 1 h 45 min
Overall bit rate : 4 964 kb/s
Encoded date : UTC 2020-09-21 11:12:51
Writing application : mkvmerge v43.0.0 ('The Quartermaster') 64-bit
Writing library : libebml v1.3.10 + libmatroska v1.5.2
Cover : Yes
Attachments : cover.jpg

Video
ID : 1
Format : AVC
Format/Info : Advanced Video Codec
Format profile : High@L4
Format settings : CABAC / 5 Ref Frames
Format settings, CABAC : Yes
Format settings, Reference : 5 frames
Codec ID : V_MPEG4/ISO/AVC
Duration : 1 h 45 min
Bit rate : 4 578 kb/s
Width : 1 920 pixels
Height : 804 pixels
Display aspect ratio : 2.40:1
Frame rate mode : Constant
Frame rate : 24.000 FPS
Color space : YUV
Chroma subsampling : 4:2:0
Bit depth : 8 bits
Scan type : Progressive
Bits/(Pixel*Frame) : 0.124
Stream size : 3.37 GiB (92%)
Language : English
Default : Yes
Forced : No
Color range : Limited
Color primaries : BT.709
Transfer characteristics : BT.709
Matrix coefficients : BT.709

Audio
ID : 2
Format : AC-3
Format/Info : Audio Coding 3
Commercial name : Dolby Digital
Codec ID : A_AC3
Duration : 1 h 45 min
Bit rate mode : Constant
Bit rate : 384 kb/s
Channel(s) : 6 channels
Channel layout : L R C LFE Ls Rs
Sampling rate : 48.0 kHz
Frame rate : 31.250 FPS (1536 SPF)
Bit depth : 16 bits
Compression mode : Lossy
Stream size : 289 MiB (8%)
Title : [MVO] DD 5.1 @ 384 kbps (iTunes)
Language : Russian
Service kind : Complete Main
Default : Yes
Forced : No

Menu
00:00:00.000 : en:Глава 1
00:08:37.541 : en:Глава 2
00:16:49.166 : en:Глава 3
00:25:22.332 : en:Глава 4
00:34:02.582 : en:Глава 5
00:42:50.873 : en:Глава 6
00:51:43.914 : en:Глава 7
01:00:00.580 : en:Глава 8
01:08:37.788 : en:Глава 9
01:17:34.788 : en:Глава 10
01:26:46.538 : en:Глава 11
01:36:33.204 : en:Глава 12

pb.wtf



Скачать В паутине лжи через торрент https://i3.imageban.ru/out/2020/09/21/7bc137a6577a74415a167dce56c35034.jpg Скачать фильм В паутине лжи через торрент бесплантно в хорошем качестве Описание: 1970 год. Инес, Аугусто и Жерардо по 20 лет. Они члены ультраправой группировки, которая при поддержке ЦРУ, хочет свергнуть ... 10 10 5
Торрент: Зарегистрирован [2020-09-22 12:34] · скачан: 76 раз
Статус: √ проверено
Размер: 3.65 GB
Как cкачать? Как скачать В паутине лжи через торрент | qTorrent

% Раздел Тема Автор DL S | L
Фильмы 2019-2020 [DVDrip, WEB-DLRip, HDrip] (DUB, MVO) [ 1.46 GB ] В паутине лжи / Spider / Araña [2019 WEB-DLRip] bober100 Скачать
8 | 0

28-11-2019 20:33  

Отключить всю рекламу на сайте

    Дорогой пользователь! Огромная просьба, поблагодарите релизера, оцените раздачу и оставьте свои комментарий, если Вы скачали В паутине лжи через торрент бесплатно! Внесите свою лепту в развитие PiratBit!
    Комментировать посты могут только пользователи прошедшие не сложную регистрацию
    Показать сообщения:    

    В паутине лжи через торрент
    Скачать бесплатно В паутине лжи
    В паутине лжи скачать торрент
    В паутине лжи смотреть онлайн
    Cкачать фильм В паутине лжи бесплатно
    В паутине лжи скачать торрент в хорошем качестве
    В паутине лжи смотреть онлайн бесплатно в хорошем качестве


    Вы не можете начинать темы
    Вы не можете отвечать на сообщения
    Вы не можете редактировать свои сообщения
    Вы не можете удалять свои сообщения
    Вы не можете голосовать в опросах
    Вы не можете прикреплять файлы к сообщениям
    Вы можете скачивать файлы