2 сезон

iTunes

MVO

1

2 сезон

iTunes

iTunes

1 сезон

RePack

30

Новинка

ВАЖНО

ИГРА 18+

pack

RePack

MK11
pack

Легкие деньги

RePack

jed

RePack

fifa19

RePack

RDR2

RePack

NEED FOR SPEED™ PAYBACK

4 сезон

9 сезон

Бесстыжие 9 сезон

Все сериалы

все сериалы на PB.wtf

RePack

FAR CRY 5

Anonymous, доброй ночи, мы не успеваем собрать деньги на оплату серверов за декабрь и январь, помогите нам пожалуйста в это трудное время. В качестве благодарности мы отключим Вам всю рекламу на сайте (укажите свой ник в строку Ваше имя)!

×
  
Magnet ссылка

Не пойман – не вор / Inside Man (Спайк Ли) [2006 г., триллер, драма, криминал, детектив, WEB-DLRip 720p / 60 FPS, Дубляж] ( Open Matte ) от R.G. HD-Films pb.wtf

Не пойман – не вор через торрент pb.wtf

Раздают: 3 [ 0 KB/s ]
Размер: 5.4 GB | Добавлен: 4 мес. назад | Торрент скачан:102 раза
Скачать  

22-09-2020 14:58 Не пойман – не вор Скачать торрент  

Не пойман – не вор / Inside Man
Год выпуска: 2006
Страна: США
Жанр: триллер, драма, криминал, детектив
Продолжительность: 02:08:47
Перевод: Дубляж
Субтитры: Russian, English

Режиссер: Спайк Ли

Бюджет: $45 000 000
Премьера в мире: 16 марта 2006

rating

В ролях: Дензел Вашингтон, Клайв Оуэн, Джоди Фостер, Кристофер Пламмер, Уиллем Дефо, Чиветел Эджиофор, Карлос Андрес Гомес, Ким Директор, Джеймс Рэнсон, Берни Рейчел

Описание: История крутого полицейского, детектива Фрейзера, который сталкивается «на узкой дорожке» с хитрым грабителем банков Далтоном. Их противостояние выливается в напряженную драму с захватом заложников. Появления брокера Мэдлин вносит еще больше хаоса и нестабильности в и без того чрезвычайно хрупкую ситуацию.

Доп. информация: Исходник видео WEB-DL Amazon STARZ (периодически появляется логотип).
Open Matte-версия фильма имеет другое наполнение кадра по сравнению с Blu-ray.


Качество: WEB-DLRip 720p / 60 FPS
Формат: MKV
Видео кодек: H.264
Аудио кодек: AC3
Видео: x264, 1280 x 720 ( 16:9 ), 5624 kbps, 60,000 fps, ( 0.102 bpp)
Аудио#1: Русский, AC-3, 48.0 KHz, 6 ch, 384 Kbps Dub
Релиз от:

скриншот   скриншот   скриншот   скриншот   скриншот   скриншот  Автор рипа: slaventi-69
x264 [info]: frame I:1774 Avg QP:15.13 size: 85694
x264 [info]: frame P:117131 Avg QP:16.14 size: 24960
x264 [info]: frame B:344331 Avg QP:18.53 size: 6830
x264 [info]: consecutive B-frames: 3.1% 5.5% 9.9% 12.3% 58.2% 11.1%


Общее
Уникальный идентификатор : 130929855749526948744632117625184253677 (0x62802C486EB540FD973937B5C27EF6ED)
Полное имя : F:\Inside.Man.(2006).WEB-DLRip.720p.(60 Fps).(Open Matte).mkv
Формат : Matroska
Версия формата : Version 4
Размер файла : 5,40 Гбайт
Продолжительность : 2 ч. 8 м.
Общий поток : 6012 Кбит/сек
Название фильма : Не пойман – не вор / Inside Man (2006) WEBRip 720p (60 Fps) | Open Matte
Дата кодирования : UTC 2020-09-07 07:49:34
Программа кодирования : mkvmerge v35.0.0 ('All The Love In The World') 64-bit
Библиотека кодирования : libebml v1.3.9 + libmatroska v1.5.2

Видео
Идентификатор : 1
Формат : AVC
Формат/Информация : Advanced Video Codec
Профиль формата : High@L4.1
Настройки формата : CABAC / 8 Ref Frames
Параметр CABAC формата : Да
Параметр RefFrames формата : 8 кадров
Идентификатор кодека : V_MPEG4/ISO/AVC
Продолжительность : 2 ч. 8 м.
Битрейт : 5624 Кбит/сек
Ширина : 1280 пикселей
Высота : 720 пикселей
Соотношение сторон : 16:9
Режим частоты кадров : Постоянный
Частота кадров : 60,000 кадров/сек
Цветовое пространство : YUV
Субдискретизация насыщенности : 4:2:0
Битовая глубина : 8 бит
Тип развёртки : Прогрессивная
Бит/(Пиксели*Кадры) : 0.102
Размер потока : 5,05 Гбайт (94%)
Заголовок : slaventi-69 ( R.G. HD-Films | 60 fps )
Библиотека кодирования : x264 core 130 r2273 b3065e6
Настройки программы : cabac=1 / ref=8 / deblock=1:-1:-1 / analyse=0x3:0x113 / me=umh / subme=9 / psy=1 / psy_rd=1.00:0.00 / mixed_ref=1 / me_range=32 / chroma_me=1 / trellis=2 / 8x8dct=1 / cqm=0 / deadzone=21,11 / fast_pskip=1 / chroma_qp_offset=-2 / threads=10 / lookahead_threads=4 / sliced_threads=0 / nr=0 / decimate=1 / interlaced=0 / bluray_compat=0 / constrained_intra=0 / bframes=5 / b_pyramid=2 / b_adapt=2 / b_bias=0 / direct=1 / weightb=1 / open_gop=0 / weightp=2 / keyint=600 / keyint_min=60 / scenecut=40 / intra_refresh=0 / rc=crf / mbtree=0 / crf=16.6 / qcomp=0.60 / qpmin=0 / qpmax=69 / qpstep=4 / ip_ratio=1.40 / pb_ratio=1.30 / aq=1:1.00
Язык : English
Default : Да
Forced : Нет

Аудио
Идентификатор : 2
Формат : AC-3
Формат/Информация : Audio Coding 3
Коммерческое название : Dolby Digital
Идентификатор кодека : A_AC3
Продолжительность : 2 ч. 8 м.
Вид битрейта : Постоянный
Битрейт : 384 Кбит/сек
Каналы : 6 каналов
Channel layout : L R C LFE Ls Rs
Частота : 48,0 КГц
Частота кадров : 31,250 кадров/сек (1536 SPF)
Битовая глубина : 16 бит
Метод сжатия : С потерями
Размер потока : 353 Мбайт (6%)
Заголовок : Dub
Язык : Russian
ServiceKind/String : Complete Main
Default : Да
Forced : Нет

Текст #1
Идентификатор : 3
Формат : UTF-8
Идентификатор кодека : S_TEXT/UTF8
Идентификатор кодека/Информация : UTF-8 Plain Text
Продолжительность : 1 ч. 59 м.
Битрейт : 0 бит/сек
ElementCount : 13
Размер потока : 680 байт (0%)
Заголовок : Forced
Язык : Russian
Default : Да
Forced : Нет

Текст #2
Идентификатор : 4
Формат : UTF-8
Идентификатор кодека : S_TEXT/UTF8
Идентификатор кодека/Информация : UTF-8 Plain Text
Продолжительность : 2 ч. 2 м.
Битрейт : 124 бит/сек
ElementCount : 1890
Размер потока : 111 Кбайт (0%)
Заголовок : Full
Язык : Russian
Default : Нет
Forced : Нет

Текст #3
Идентификатор : 5
Формат : UTF-8
Идентификатор кодека : S_TEXT/UTF8
Идентификатор кодека/Информация : UTF-8 Plain Text
Продолжительность : 2 ч. 2 м.
Битрейт : 83 бит/сек
ElementCount : 1901
Размер потока : 74,9 Кбайт (0%)
Язык : English
Default : Нет
Forced : Нет

Просьба к переливающим на другие сайты, в оформлении указывайте пожалуйста авторство группы R.G. HD-Films pb.wtf



Скачать Не пойман – не вор через торрент http://pic.kartinco.top/images/6/kmbjp.jpg Скачать фильм Не пойман – не вор через торрент бесплантно в хорошем качестве Описание: История крутого полицейского, детектива Фрейзера, который сталкивается «на узкой дорожке» с хитрым грабителем банков Далтоном. Их ... 9.7 10 7
Торрент: Зарегистрирован [2020-09-22 14:58] · скачан: 102 раз
Статус: √ проверено
Размер: 5.4 GB
Как cкачать? Как скачать Не пойман – не вор через торрент | UTorrent

% Раздел Тема Автор DL S | L
Фильмы 2006-2008 [ 2.18 GB ] Не пойман – не вор / Inside Man [2006 HDRip-AVC] DUB [] от R.G. PiratFilms Phoenix Скачать
1 | 0

28-11-2019 20:33  

Отключить всю рекламу на сайте

    Дорогой пользователь! Огромная просьба, поблагодарите релизера, оцените раздачу и оставьте свои комментарий, если Вы скачали Не пойман – не вор через торрент бесплатно! Внесите свою лепту в развитие PiratBit!
    Комментировать посты могут только пользователи прошедшие не сложную регистрацию
    Показать сообщения:    

    Не пойман – не вор через торрент
    Скачать бесплатно Не пойман – не вор
    Не пойман – не вор скачать торрент
    Не пойман – не вор смотреть онлайн
    Cкачать фильм Не пойман – не вор бесплатно
    Не пойман – не вор скачать торрент в хорошем качестве
    Не пойман – не вор смотреть онлайн бесплатно в хорошем качестве


    Вы не можете начинать темы
    Вы не можете отвечать на сообщения
    Вы не можете редактировать свои сообщения
    Вы не можете удалять свои сообщения
    Вы не можете голосовать в опросах
    Вы не можете прикреплять файлы к сообщениям
    Вы можете скачивать файлы