Ссылка на приватное зеркало нашего сайта всего за 1$. Внимание количество ограничено!!!

2 сезон

iTunes

1 сезон

1

2 сезон

2 сезон

iTunes

1 сезон

RePack

30

Ultimate

ВАЖНО

ИГРА 18+

pack

RePack

MK11
pack

Забери бонус

RePack

jed

!!Акция!!

Alien_Rage

RePack

fifa19

RePack

Assassins Creed: Odyssey

RePack

NEED FOR SPEED™ PAYBACK

4 сезон

9 сезон

Бесстыжие 9 сезон

Все сериалы

все сериалы на PB.wtf

RePack

FAR CRY 5
  

Тьма: Вторжение / Столкновение с тьмой / Dark Encounter (Карл Страти) [2019, Ужасы, фантастика, BD Remux 1080p] MVO [iTunes] pb.wtf

Тьма: Вторжение через торрент pb.wtf

Размер: 15.04 GB | Добавлен: 2 мес. 6 д. назад | Торрент скачан:70 раз
Скачать  

23-09-2020 04:45 Тьма: Вторжение Скачать торрент  

Тьма: Вторжение | Столкновение с тьмой | Dark Encounter
Год выпуска: 2019
Страна: Великобритания
Студия: Goldfinch, Strathie Film
Жанр: Ужасы, фантастика
Продолжительность: 01:38:04
Перевод: Профессиональный многоголосый | iTunes
Субтитры: Русские (Forced), английские

Режиссер: Карл Страти

rating

В ролях: Лора Фрейзер, Мел Райдо, Сид Феникс, Грант Мастерс, Спайк Уайт, Элис Лоу, Николас Пиннок, Винсент Риган, Шон Нопп

Описание: История разворачивается спустя год после таинственного исчезновения 8-летней девочки. Однажды вечером, после того как ее семья вернулась домой с поминальной службы, в лесу неподалеку от них зажигаются странные огни. Вскоре герои узнают страшные подробности о пропаже маленькой девочки.

Качество: BD Remux 1080p
Формат: MKV

Видео: MPEG-4 AVC, 1920x1080, 18.0 Mbit/s, 23.976 fps
Аудио #01: 48 kHz, AC3, 5.1, 384 Kbps | iTunes | RUS |
Аудио #02: 48 kHz, DTS-HD MA, 5.1, 3604 Kbps | Оригинал | ENG |
скриншот  скриншот  скриншот  скриншот  скриншот  

General
Unique ID : 123895097224748571655211309695186506702 (0x5D3553E8C95C714DD8089D12DAEC13CE)
Complete name : D:Video111Dark.Encounter.2019.BDREMUX.1080p.seleZen.mkv
Format : Matroska
Format version : Version 4
File size : 15.0 GiB
Duration : 1 h 38 min
Overall bit rate mode : Variable
Overall bit rate : 22.0 Mb/s
Movie name : Dark Encounter 2019 from селезень
Encoded date : UTC 2020-09-23 04:34:15
Writing application : mkvmerge v40.0.0 ('Old Town Road + Pony') 64-bit
Writing library : libebml v1.3.9 + libmatroska v1.5.2

Video
ID : 1
Format : AVC
Format/Info : Advanced Video Codec
Format profile : High@L4.1
Format settings : CABAC / 4 Ref Frames
Format settings, CABAC : Yes
Format settings, Reference : 4 frames
Codec ID : V_MPEG4/ISO/AVC
Duration : 1 h 38 min
Bit rate mode : Constant
Bit rate : 18.0 Mb/s
Nominal bit rate : 19.0 Mb/s
Width : 1 920 pixels
Height : 1 080 pixels
Display aspect ratio : 16:9
Frame rate mode : Constant
Frame rate : 23.976 (24000/1001) FPS
Standard : NTSC
Color space : YUV
Chroma subsampling : 4:2:0
Bit depth : 8 bits
Scan type : Progressive
Bits/(Pixel*Frame) : 0.361
Stream size : 12.3 GiB (82%)
Language : English
Default : Yes
Forced : No
Color range : Limited
Color primaries : BT.709
Transfer characteristics : BT.709
Matrix coefficients : BT.709

Audio #1
ID : 2
Format : AC-3
Format/Info : Audio Coding 3
Commercial name : Dolby Digital
Codec ID : A_AC3
Duration : 1 h 37 min
Bit rate mode : Constant
Bit rate : 384 kb/s
Channel(s) : 6 channels
Channel layout : L R C LFE Ls Rs
Sampling rate : 48.0 kHz
Frame rate : 31.250 FPS (1536 SPF)
Compression mode : Lossy
Stream size : 267 MiB (2%)
Title : iTunes
Language : Russian
Service kind : Complete Main
Default : Yes
Forced : Yes

Audio #2
ID : 3
Format : DTS XLL
Format/Info : Digital Theater Systems
Commercial name : DTS-HD Master Audio
Codec ID : A_DTS
Duration : 1 h 38 min
Bit rate mode : Variable
Bit rate : 3 604 kb/s
Channel(s) : 6 channels
Channel layout : C L R Ls Rs LFE
Sampling rate : 48.0 kHz
Frame rate : 93.750 FPS (512 SPF)
Bit depth : 24 bits
Compression mode : Lossless
Stream size : 2.47 GiB (16%)
Title : Original
Language : English
Default : No
Forced : No

Text #1
ID : 4
Format : UTF-8
Codec ID : S_TEXT/UTF8
Codec ID/Info : UTF-8 Plain Text
Duration : 1 h 26 min
Bit rate : 0 b/s
Count of elements : 8
Stream size : 635 Bytes (0%)
Title : Forced
Language : Russian
Default : Yes
Forced : Yes

Text #2
ID : 5
Format : UTF-8
Codec ID : S_TEXT/UTF8
Codec ID/Info : UTF-8 Plain Text
Duration : 1 h 27 min
Bit rate : 24 b/s
Count of elements : 565
Stream size : 15.4 KiB (0%)
Title : Full
Language : English
Default : No
Forced : No

Menu
00:00:00.000 : en:Chapter 01
00:05:47.222 : en:Chapter 02
00:15:34.559 : en:Chapter 03
00:24:46.360 : en:Chapter 04
00:31:32.015 : en:Chapter 05
00:42:15.199 : en:Chapter 06
00:48:20.898 : en:Chapter 07
00:58:17.994 : en:Chapter 08
01:06:39.621 : en:Chapter 09
01:18:16.150 : en:Chapter 10
01:24:29.273 : en:Chapter 11
01:33:17.342 : en:Chapter 12

pb.wtf



Скачать Тьма: Вторжение через торрент https://i112.fastpic.ru/big/2020/0923/ba/152efbaff3ca6c45a8b4a391eccc60ba.jpg Скачать фильм Тьма: Вторжение через торрент бесплантно в хорошем качестве Описание: История разворачивается спустя год после таинственного исчезновения 8-летней девочки. Однажды вечером, после того как ее семья ... 9.5 10 4
Торрент: Зарегистрирован [2020-09-23 04:45] · скачан: 70 раз
Статус: √ проверено
Размер: 15.04 GB
Как cкачать? Как скачать Тьма: Вторжение через торрент | qTorrent

% Раздел Тема Автор DL S | L
Фильмы [HD 720p, 1080p] (Хороший звук DUB, MVO) [ 10.21 GB ] Тьма: Вторжение / Столкновение с тьмой / Dark Encounter [2019 BDRip 1080p] MVO bober100 Скачать
1 | 0
Фильмы 2019-2020 [DVDrip, WEB-DLRip, HDrip] (DUB, MVO) [ 745 MB ] Тьма: Вторжение / Столкновение с тьмой / Dark Encounter [2019 HDRip-AVC] [MVO] от MediaBit Lithuania Скачать
4 | 0
Фильмы 2019-2020 [DVDrip, WEB-DLRip, HDrip] (DUB, MVO) [ 745 MB ] Тьма: Вторжение / Столкновение с тьмой / Dark Encounter [2019 BDRip] MVO bober100 Скачать
2 | 0
Фильмы [HD 720p, 1080p] (Хороший звук DUB, MVO) [ 4.11 GB ] Тьма: Вторжение / Столкновение с тьмой / Dark Encounter [2019 BDRip 720p] MVO bober100 Скачать
3 | 0
Фильмы 2019-2020 [DVDrip, WEB-DLRip, HDrip] (DUB, MVO) [ 2.13 GB ] Тьма: Вторжение / Столкновение с тьмой / Dark Encounter [2019 BDRip-AVC] MVO bober100 Скачать
14 | 0
Фильмы 2019-2020 [DVDrip, WEB-DLRip, HDrip] (DUB, MVO) [ 1.45 GB ] Тьма: Вторжение / Столкновение с тьмой / Dark Encounter [2019 BDRip-AVC] MVO bober100 Скачать
7 | 0
Фильмы 2019-2020 [DVDrip, WEB-DLRip, HDrip] (DUB, MVO) [ 1.46 GB ] Тьма: Вторжение / Столкновение с тьмой / Dark Encounter [2019 BDRip] MVO bober100 Скачать
3 | 0

28-11-2019 20:33  

Отключить всю рекламу на сайте

    Дорогой пользователь! Огромная просьба, поблагодарите релизера, оцените раздачу и оставьте свои комментарий, если Вы скачали Тьма: Вторжение через торрент бесплатно! Внесите свою лепту в развитие PiratBit!
    Комментировать посты могут только пользователи прошедшие не сложную регистрацию
    Показать сообщения:    

    Тьма: Вторжение через торрент
    Скачать бесплатно Тьма: Вторжение
    Тьма: Вторжение скачать торрент
    Тьма: Вторжение смотреть онлайн
    Cкачать фильм Тьма: Вторжение бесплатно
    Тьма: Вторжение скачать торрент в хорошем качестве
    Тьма: Вторжение смотреть онлайн бесплатно в хорошем качестве


    Вы не можете начинать темы
    Вы не можете отвечать на сообщения
    Вы не можете редактировать свои сообщения
    Вы не можете удалять свои сообщения
    Вы не можете голосовать в опросах
    Вы не можете прикреплять файлы к сообщениям
    Вы можете скачивать файлы