Ссылка на приватное зеркало нашего сайта всего за 1$. Внимание количество ограничено!!!

2 сезон

iTunes

1 сезон

1

iTunes

iTunes

iTunes

1 сезон

RePack

30

ИГРА 18+

pack

ВАЖНО

!!Акция!!

Alien_RageХит недели

RePack

MK11
pack

Забери бонус

RePack

jed

!!Акция!!

Alien_Rage

RePack

fifa19

RePack

Assassins Creed: Odyssey

RePack

NEED FOR SPEED™ PAYBACK

4 сезон

9 сезон

Бесстыжие 9 сезон

Все сериалы

все сериалы на PB.wtf

RePack

FAR CRY 5
  

Балабол / Одинокий волк Саня / Сезон: 4 / Серии: 1-20 из 20 (Рауф Атамалибеков) [2020, Детектив, комедия, криминал, WEBRip] pb.wtf

Балабол через торрент pb.wtf

Размер: 12.58 GB | Добавлен: 19 д. назад | Торрент скачан:14 раз
Скачать  

23-09-2020 05:15 Балабол Скачать торрент  

Балабол / Одинокий волк Саня
Год выпуска: 2020
Страна: Россия
Выпущено: «ТМ Продакшн»
Жанр: Детектив, комедия, криминал
Продолжительность: ~ 00:50:00
Перевод: Не требуется
Субтитры: отсутствуют

Режиссер: Рауф Атамалибеков

rating


В ролях: Константин Юшкевич, Илья Шляга, Вадим Андреев, Инга Оболдина, Ирина Низина, Мария Пирогова, Иван Агапов, Дмитрий Сотниченко, Евгений Сологалов, Кристина Борейко, Олег Чудницов, Александр Лепихов, Алексей Герилович, Олег Евтеев, Евгений Сыркин, Сергей Погосян, Владимир Чуприков

Описание: В новом сезоне капитан Саня Балабин стал майором. Хотел бы ещё стать примерным семьянином - отцом и дедом. Но, судя по всему, семейная идиллия – не Санин удел. Он вновь разбегается с Леной и даже заводит роман на стороне. На работе тоже покой ему «только снится». В городе появляется хладнокровный убийца, который действует дерзко и жестоко, каждый раз опережая Саню буквально на один шаг. Но помимо поисков безжалостного убийцы, Балабину придётся накрыть чёрных риелторов, поймать убийцу юной девушки, разгромить в Геленджике банду наркоторговцев, а также найти крота в собственном отделе.

Качество: WEBRip
Формат: AVI

Видео: XviD, ~ 1600 Кбит/с, 720x400, 25 кадр/с
Аудио: AC3, 2 ch, 192 Кбит/с
скриншот  скриншот  скриншот  скриншот  скриншот  

General
Complete name : H:\fiiles x\Балабол.04.2020.WEB-DLRip.Files-x\01. Балабол.04.2020.WEB-DLRip.Files-x.avi
Format : AVI
Format/Info : Audio Video Interleave
File size : 645 MiB
Duration : 50mn 2s
Overall bit rate : 1 802 Kbps
Writing application : VirtualDubMod 1.5.10.3 | www.virtualdub-fr.org || (build 2550/release)
Writing library : VirtualDubMod build 2550/release

Video
ID : 0
Format : MPEG-4 Visual
Format profile : Advanced Simple@L5
Format settings, BVOP : 1
Format settings, QPel : No
Format settings, GMC : No warppoints
Format settings, Matrix : Custom
Codec ID : XVID
Codec ID/Hint : XviD
Duration : 50mn 2s
Bit rate : 1 600 Kbps
Width : 720 pixels
Height : 400 pixels
Display aspect ratio : 16:9
Frame rate : 25.000 fps
Color space : YUV
Chroma subsampling : 4:2:0
Bit depth : 8 bits
Scan type : Progressive
Compression mode : Lossy
Bits/(Pixel*Frame) : 0.222
Stream size : 573 MiB (89%)
Writing library : XviD 73

Audio
ID : 1
Format : AC-3
Format/Info : Audio Coding 3
Mode extension : CM (complete main)
Codec ID : 2000
Duration : 50mn 2s
Bit rate mode : Constant
Bit rate : 192 Kbps
Channel(s) : 2 channels
Channel positions : Front: L R
Sampling rate : 48.0 KHz
Bit depth : 16 bits
Compression mode : Lossy
Stream size : 68.7 MiB (11%)
Alignment : Split accross interleaves
Interleave, duration : 40 ms (1.00 video frame)
Interleave, preload duration : 500 ms

Раздача ведётся путём добавления новых серий, при каждом добавлении создаётся новый торрент. Чтобы начать докачку новой серии, пользователям необходимо сделать следующее:

- Остановить скачивание.
- Удалить старый торрент у себя из клиента (старые серии удалять не надо).
- Скачать новый торрент и запустить его у себя в клиенте вместо старого, при этом указать клиенту путь в старую папку куда и должно происходить скачивание новых серий.

Ваш клиент при этом должен произвести хеширование (проверку) старой папки (если не производит сам - помогите ему сделать это), и будет докачивать только те серии которых у вас ещё нет. Старые серии при этом не удаляются, а продолжают раздаваться!
Если вы уже удалили старые серии, то предотвратить повторную закачку старых серий можно, отжав галочку в соответствующих местах при запуске нового торрента. По возможности, желательно не удалять старые серии как можно дольше, чтобы релизер не столько продолжал раздавать старые серии, а смог сконцентрироваться на новых.
pb.wtf



Скачать Балабол через торрент http://b.radikal.ru/b16/2009/40/a4bf16d36941.jpg Скачать фильм Балабол через торрент бесплантно в хорошем качестве Описание: В новом сезоне капитан Саня Балабин стал майором. Хотел бы ещё стать примерным семьянином - отцом и дедом. Но, судя по всему, ... 9 10 7
Торрент: Зарегистрирован [2020-10-03 00:15] · скачан: 14 раз
Статус: √ проверено
Размер: 12.58 GB
Как cкачать? Как скачать Балабол через торрент | qTorrent

% Раздел Тема Автор DL S | L
Наши сериалы [ 25.75 GB ] Балабол / Одинокий волк Саня / Сезон: 4 / Серии: 1-20 из 20 [2020 WEBRip 720p] bober100 Скачать
1 | 0
Наши сериалы [ 15.3 GB ] Балабол / Одинокий волк Саня / Сезон: 4 / Серии: 1-20 из 20 [2020 WEBRip-AVC] bober100 Скачать
2 | 0
Наши сериалы [ 43.08 GB ] Балабол / Одинокий волк Саня / Сезон: 4 / Серии: 1-20 из 20 [2020 WEBRip 1080p] bober100 Скачать
3 | 0
Наши сериалы [ 11.72 GB ] Балабол / Одинокий волк Саня / Сезон: 4 / Серии: 1-20 из 20 [2020 SATRip] bober100 Скачать
4 | 0

28-11-2019 20:33  

Отключить всю рекламу на сайте

    Дорогой пользователь! Огромная просьба, поблагодарите релизера, оцените раздачу и оставьте свои комментарий, если Вы скачали Балабол через торрент бесплатно! Внесите свою лепту в развитие PiratBit!
    Комментировать посты могут только пользователи прошедшие не сложную регистрацию
    Показать сообщения:    

    Балабол через торрент
    Скачать бесплатно Балабол
    Балабол скачать торрент
    Балабол смотреть онлайн
    Cкачать фильм Балабол бесплатно
    Балабол скачать торрент в хорошем качестве
    Балабол смотреть онлайн бесплатно в хорошем качестве


    Вы не можете начинать темы
    Вы не можете отвечать на сообщения
    Вы не можете редактировать свои сообщения
    Вы не можете удалять свои сообщения
    Вы не можете голосовать в опросах
    Вы не можете прикреплять файлы к сообщениям
    Вы можете скачивать файлы