2 сезон

iTunes

MVO

1

2 сезон

iTunes

iTunes

1 сезон

RePack

30

Ultimate

ВАЖНО

ИГРА 18+

pack

RePack

MK11
pack

Легкие деньги

RePack

jed

RePack

fifa19

RePack

RDR2

RePack

NEED FOR SPEED™ PAYBACK

4 сезон

9 сезон

Бесстыжие 9 сезон

Все сериалы

все сериалы на PB.wtf

RePack

FAR CRY 5

Anonymous, доброй ночи, мы не успеваем собрать деньги на оплату серверов за декабрь и январь, помогите нам пожалуйста в это трудное время. В качестве благодарности мы отключим Вам всю рекламу на сайте (укажите свой ник в строку Ваше имя)!

×
  
Magnet ссылка

Нечего терять / Nothing to Lose (Стив Одекерк) [1997 г., боевик, комедия, криминал, приключения, WEB-DLRip 720p / 60 FPS, Дубляж] от R.G. HD-Films pb.wtf

Нечего терять через торрент pb.wtf

Раздают: 2 [ 0 KB/s ]
Размер: 3.56 GB | Добавлен: 3 мес. 26 д. назад | Торрент скачан:86 раз
Скачать  

23-09-2020 13:38 Нечего терять Скачать торрент  

Нечего терять / Nothing to Lose
Год выпуска: 1997
Страна: США
Жанр: боевик, комедия, криминал, приключения
Продолжительность: 01:37:56
Перевод: Дубляж ( Нева-1 )
Субтитры: Russian, English

Режиссер: Стив Одекерк

Бюджет: $25 000 000
Премьера в мире: 18 июля 1997

rating

В ролях: Мартин Лоуренс, Тим Роббинс, Джон К. МакГинли, Джанкарло Эспозито, Келли Престон, Майкл МакКин, Ребекка Гэйхарт, Сьюзэн Барнс, Ирма П. Холл, Самариа Грэхэм

Описание: Рекламный агент Ник Бим, которому нечего терять… кроме своей обожаемой жены, застает ее в постели с собственным начальником. Доведенный до отчаяния, он садится в машину и уезжает куда глаза глядят.

Но неприятности для него только начинаются, ведь в этот момент другой неудачник выходит на большую дорогу в поисках жертвы. А на горизонте как раз показался автомобиль Ника…

Качество: WEB-DLRip 720p / 60 FPS
Формат: MKV
Видео кодек: H.264
Аудио кодек: AC3
Видео: x264, 1280 x 688 ( 1,85:1 ), 5011 kbps, 60,000 fps, ( 0.095 bpp)
Аудио#1: Русский, AC-3, 48.0 KHz, 2 ch, 192 Kbps Dub ( Нева-1 )
Релиз от:

скриншот   скриншот   скриншот   скриншот   скриншот   скриншот  Автор рипа: slaventi-69
x264 [info]: frame I:1389 Avg QP:16.94 size: 82720
x264 [info]: frame P:83776 Avg QP:17.91 size: 23378
x264 [info]: frame B:267053 Avg QP:20.02 size: 6006
x264 [info]: consecutive B-frames: 2.3% 3.6% 8.5% 9.9% 65.5% 10.2%


Общее
Уникальный идентификатор : 115601561133278062890690887149291554988 (0x56F80D0291A73964B8B37F6523CFC8AC)
Полное имя : F:\Nothing.to.Lose.(1997).WEB-DLRip.720p.(60 Fps).mkv
Формат : Matroska
Версия формата : Version 4
Размер файла : 3,56 Гбайт
Продолжительность : 1 ч. 37 м.
Общий поток : 5206 Кбит/сек
Название фильма : Нечего терять / Nothing to Lose (1997) WEB-DLRip 720p (60 Fps)
Дата кодирования : UTC 2020-09-18 14:45:10
Программа кодирования : mkvmerge v35.0.0 ('All The Love In The World') 64-bit
Библиотека кодирования : libebml v1.3.9 + libmatroska v1.5.2

Видео
Идентификатор : 1
Формат : AVC
Формат/Информация : Advanced Video Codec
Профиль формата : High@L4.1
Настройки формата : CABAC / 9 Ref Frames
Параметр CABAC формата : Да
Параметр RefFrames формата : 9 кадров
Идентификатор кодека : V_MPEG4/ISO/AVC
Продолжительность : 1 ч. 37 м.
Битрейт : 5011 Кбит/сек
Ширина : 1280 пикселей
Высота : 688 пикселей
Соотношение сторон : 1,85:1
Режим частоты кадров : Постоянный
Частота кадров : 60,000 кадров/сек
Цветовое пространство : YUV
Субдискретизация насыщенности : 4:2:0
Битовая глубина : 8 бит
Тип развёртки : Прогрессивная
Бит/(Пиксели*Кадры) : 0.095
Размер потока : 3,42 Гбайт (96%)
Заголовок : slaventi-69 ( R.G. HD-Films | 60 fps )
Библиотека кодирования : x264 core 130 r2273 b3065e6
Настройки программы : cabac=1 / ref=9 / deblock=1:-1:-1 / analyse=0x3:0x113 / me=umh / subme=9 / psy=1 / psy_rd=1.00:0.00 / mixed_ref=1 / me_range=32 / chroma_me=1 / trellis=2 / 8x8dct=1 / cqm=0 / deadzone=21,11 / fast_pskip=1 / chroma_qp_offset=-2 / threads=10 / lookahead_threads=4 / sliced_threads=0 / nr=0 / decimate=1 / interlaced=0 / bluray_compat=0 / constrained_intra=0 / bframes=5 / b_pyramid=2 / b_adapt=2 / b_bias=0 / direct=1 / weightb=1 / open_gop=0 / weightp=2 / keyint=600 / keyint_min=60 / scenecut=40 / intra_refresh=0 / rc=crf / mbtree=0 / crf=17.5 / qcomp=0.60 / qpmin=0 / qpmax=69 / qpstep=4 / ip_ratio=1.40 / pb_ratio=1.30 / aq=1:1.00
Язык : English
Default : Да
Forced : Нет

Аудио
Идентификатор : 2
Формат : AC-3
Формат/Информация : Audio Coding 3
Коммерческое название : Dolby Digital
Идентификатор кодека : A_AC3
Продолжительность : 1 ч. 37 м.
Вид битрейта : Постоянный
Битрейт : 192 Кбит/сек
Каналы : 2 канала
Channel layout : L R
Частота : 48,0 КГц
Частота кадров : 31,250 кадров/сек (1536 SPF)
Битовая глубина : 16 бит
Метод сжатия : С потерями
Размер потока : 134 Мбайт (4%)
Заголовок : Dub ( Нева-1 )
Язык : Russian
ServiceKind/String : Complete Main
Default : Да
Forced : Нет

Текст #1
Идентификатор : 3
Формат : UTF-8
Идентификатор кодека : S_TEXT/UTF8
Идентификатор кодека/Информация : UTF-8 Plain Text
Продолжительность : 1 ч. 37 м.
Битрейт : 76 бит/сек
ElementCount : 997
Размер потока : 54,9 Кбайт (0%)
Язык : Russian
Default : Нет
Forced : Нет

Текст #2
Идентификатор : 4
Формат : UTF-8
Идентификатор кодека : S_TEXT/UTF8
Идентификатор кодека/Информация : UTF-8 Plain Text
Продолжительность : 1 ч. 36 м.
Битрейт : 68 бит/сек
ElementCount : 1201
Размер потока : 48,5 Кбайт (0%)
Язык : English
Default : Нет
Forced : Нет

Просьба к переливающим на другие сайты, в оформлении указывайте пожалуйста авторство группы R.G. HD-Films pb.wtf



Скачать Нечего терять через торрент http://lostpix.com/img/2017-06/28/dzhvwao0v3ocivsy8sp3zyfux.jpg Скачать фильм Нечего терять через торрент бесплантно в хорошем качестве Описание: Рекламный агент Ник Бим, которому нечего терять… кроме своей обожаемой жены, застает ее в постели с собственным начальником. ... 10 10 9
Info! Золотая раздача, скачанное не засчитывается.
Торрент: Зарегистрирован [2020-09-23 13:38] · скачан: 86 раз
Статус: √ проверено
Размер: 3.56 GB
Как cкачать? Как скачать Нечего терять через торрент | UTorrent

28-11-2019 20:33  

Отключить всю рекламу на сайте

23-09-2020 15:13 Нечего терять Скачать торрент  

Отличная комедия....pb.wtf



23-09-2020 17:21 Нечего терять Скачать торрент  

Я видимо пропустил...pb.wtf



24-09-2020 11:56 Нечего терять Скачать торрент  

О да! Однозначно золото!!!
Я так понимаю продолжение следует! pb.wtf



24-09-2020 14:29 Нечего терять Скачать торрент  

Правильно понимаете. За Золото Спасибо.pb.wtf



    Дорогой пользователь! Огромная просьба, поблагодарите релизера, оцените раздачу и оставьте свои комментарий, если Вы скачали Нечего терять через торрент бесплатно! Внесите свою лепту в развитие PiratBit!
    Комментировать посты могут только пользователи прошедшие не сложную регистрацию
    Показать сообщения:    

    Нечего терять через торрент
    Скачать бесплатно Нечего терять
    Нечего терять скачать торрент
    Нечего терять смотреть онлайн
    Cкачать фильм Нечего терять бесплатно
    Нечего терять скачать торрент в хорошем качестве
    Нечего терять смотреть онлайн бесплатно в хорошем качестве


    Вы не можете начинать темы
    Вы не можете отвечать на сообщения
    Вы не можете редактировать свои сообщения
    Вы не можете удалять свои сообщения
    Вы не можете голосовать в опросах
    Вы не можете прикреплять файлы к сообщениям
    Вы можете скачивать файлы