Ссылка на приватное зеркало нашего сайта всего за 1$. Внимание количество ограничено!!!

2 сезон

iTunes

1 сезон

1

iTunes

iTunes

iTunes

1 сезон

RePack

30

ИГРА 18+

pack

ВАЖНО

!!Акция!!

Alien_RageХит недели

RePack

MK11
pack

Забери бонус

RePack

jed

!!Акция!!

Alien_Rage

RePack

fifa19

RePack

Assassins Creed: Odyssey

RePack

NEED FOR SPEED™ PAYBACK

4 сезон

9 сезон

Бесстыжие 9 сезон

Все сериалы

все сериалы на PB.wtf

RePack

FAR CRY 5
  

Энола Холмс / Enola Holmes (Гарри Брэдбир) [2020, драма, криминал, детектив, WEB-DL 720p] 3x[MVO] (HDRezka Studio, NewComers, Flarrow Films) pb.wtf

Энола Холмс через торрент pb.wtf

Раздают: 5 [ 74 KB/s ]
Размер: 3.95 GB | Добавлен: 28 д. назад | Торрент скачан:137 раз
Скачать  

23-09-2020 20:21 Энола Холмс Скачать торрент  

Энола Холмс / Enola Holmes

Год выпуска: 2020
Страна: Великобритания
Студия: EH Productions, Warner Bros.
Жанр: драма, криминал, детектив
Продолжительность: 02:03:54
Перевод : Профессиональный (многоголосый закадровый) HDRezka Studio
Перевод 2: Профессиональный (многоголосый закадровый) NewComers
Перевод 3: Любительский (многоголосый закадровый) Flarrow Films
Субтитры: русские (forced, полные), английские

Режиссер: Гарри Брэдбир / Harry Bradbeer
В ролях: Милли Бобби Браун, Генри Кавилл, Сэм Клафлин, Хелена Бонем Картер, Фиона Шоу, Адиль Ахтар, Фрэнсис де ла Тур, Луис Патридж, Сьюзан Уокома, Берн Горман

Описание: У 16-летней Энолы Холмс исчезает мать. Она просит помощи у старших братьев Майкрофта и Шерлока, но они воспринимают исчезновение как нечто незначительное. Энола сбегает из дома в Лондон, где натыкается на инспектора Лестрейда и подключается к поискам пропавшего молодого виконта.
rating
Сэмпл: http://sendfile.su/1577943

Тип релиза: WEB-DL 720p (Исходник: Enola.Holmes.2020.720p.NF.WEB-DL.DDP5.1.Atmos.x264-CMRG)
Контейнер: MKV
Видео кодек: H.264
Аудио кодек: AC-3
Видео: MPEG4/AVC, 16:9, 24.000 FPS, 1280x720p, 2870 kb/s
Аудио 1: Русский, AC-3, 48.0 kHz, 5.1, 448 kb/s - многоголосый закадровый HDRezka Studio
Аудио 2: Русский, AC-3, 48.0 kHz, 5.1, 448 kb/s - многоголосый закадровый NewComers
Аудио 3: Русский, AC-3, 48.0 kHz, 2.0, 192 kb/s - многоголосый закадровый Flarrow Films
Аудио 4: Английский, AC-3, 48.0 kHz, 5.1, 640 kb/s
Формат субтитров: softsub (SRT)
Общее
Формат : Matroska
Версия формата : Version 4
Размер файла : 3,95 Гбайт
Продолжительность : 2 ч. 3 м.
Режим общего битрейта : Переменный
Общий поток : 4 566 Кбит/сек
Название фильма : Enola.Holmes.2020 - Rutracker
Дата кодирования : UTC 2020-09-26 16:55:22
Программа кодирования : mkvmerge v50.0.0 ('Awakenings') 64-bit
Библиотека кодирования : libebml v1.4.0 + libmatroska v1.6.2
Обложка : Yes
Attachments : cover.jpg

Видео
Идентификатор : 1
Формат : AVC
Формат/Информация : Advanced Video Codec
Профиль формата : Main@L3.1
Настройки формата : CABAC / 3 Ref Frames
Параметр CABAC формата : Да
Параметр RefFrames формата : 3 кадра
Идентификатор кодека : V_MPEG4/ISO/AVC
Продолжительность : 2 ч. 3 м.
Вид битрейта : Переменный
Битрейт : 2 870 Кбит/сек
Максимальный битрейт : 4 305 Кбит/сек
Ширина : 1 280 пикселей
Высота : 720 пикселей
Соотношение сторон : 16:9
Режим частоты кадров : Постоянный
Частота кадров : 24,000 кадра/сек
Цветовое пространство : YUV
Субдискретизация насыщенности : 4:2:0
Битовая глубина : 8 бит
Тип развёртки : Прогрессивная
Бит/(Пиксели*Кадры) : 0.130
Размер потока : 2,45 Гбайт (62%)
Заголовок : Enola.Holmes.2020
Библиотека кодирования : x264 core 148 r2721 6d200cf
Настройки программы : cabac=1 / ref=3 / deblock=1:0:0 / analyse=0x1:0x111 / me=umh / subme=10 / psy=1 / psy_rd=1.00:0.00 / mixed_ref=1 / me_range=24 / chroma_me=1 / trellis=2 / 8x8dct=0 / cqm=0 / deadzone=21,11 / fast_pskip=1 / chroma_qp_offset=-2 / threads=6 / lookahead_threads=1 / sliced_threads=0 / nr=0 / decimate=1 / interlaced=0 / bluray_compat=0 / stitchable=1 / constrained_intra=0 / bframes=2 / b_pyramid=0 / b_adapt=2 / b_bias=0 / direct=3 / weightb=1 / open_gop=0 / weightp=2 / keyint=250 / keyint_min=24 / scenecut=0 / intra_refresh=0 / rc_lookahead=48 / rc=2pass / mbtree=1 / bitrate=2870 / ratetol=1.0 / qcomp=0.50 / qpmin=6 / qpmax=51 / qpstep=4 / cplxblur=20.0 / qblur=0.5 / vbv_maxrate=4305 / vbv_bufsize=5740 / nal_hrd=vbr / filler=0 / ip_ratio=1.40 / aq=1:1.00
Default : Да
Forced : Нет

Аудио #1
Идентификатор : 2
Формат : AC-3
Формат/Информация : Audio Coding 3
Коммерческое название : Dolby Digital
Идентификатор кодека : A_AC3
Продолжительность : 2 ч. 3 м.
Вид битрейта : Постоянный
Битрейт : 448 Кбит/сек
Каналы : 6 каналов
Channel layout : L R C LFE Ls Rs
Частота : 48,0 КГц
Частота кадров : 31,250 кадров/сек (1536 SPF)
Метод сжатия : С потерями
Размер потока : 397 Мбайт (10%)
Заголовок : русский MVO HDRezka Studio
Язык : Russian
Service kind : Complete Main
Default : Да
Forced : Нет

Аудио #2
Идентификатор : 3
Формат : AC-3
Формат/Информация : Audio Coding 3
Коммерческое название : Dolby Digital
Идентификатор кодека : A_AC3
Продолжительность : 2 ч. 3 м.
Вид битрейта : Постоянный
Битрейт : 448 Кбит/сек
Каналы : 6 каналов
Channel layout : L R C LFE Ls Rs
Частота : 48,0 КГц
Частота кадров : 31,250 кадров/сек (1536 SPF)
Метод сжатия : С потерями
Размер потока : 397 Мбайт (10%)
Заголовок : русский MVO NewComers
Язык : Russian
Service kind : Complete Main
Default : Нет
Forced : Нет

Аудио #3
Идентификатор : 4
Формат : AC-3
Формат/Информация : Audio Coding 3
Коммерческое название : Dolby Digital
Идентификатор кодека : A_AC3
Продолжительность : 2 ч. 3 м.
Вид битрейта : Постоянный
Битрейт : 192 Кбит/сек
Каналы : 2 канала
Channel layout : L R
Частота : 48,0 КГц
Частота кадров : 31,250 кадров/сек (1536 SPF)
Метод сжатия : С потерями
Размер потока : 170 Мбайт (4%)
Заголовок : русский MVO Flarrow Films
Язык : Russian
Service kind : Complete Main
Default : Нет
Forced : Нет

Аудио #4
Идентификатор : 5
Формат : AC-3
Формат/Информация : Audio Coding 3
Коммерческое название : Dolby Digital
Идентификатор кодека : A_AC3
Продолжительность : 2 ч. 3 м.
Вид битрейта : Постоянный
Битрейт : 640 Кбит/сек
Каналы : 6 каналов
Channel layout : L R C LFE Ls Rs
Частота : 48,0 КГц
Частота кадров : 31,250 кадров/сек (1536 SPF)
Метод сжатия : С потерями
Размер потока : 567 Мбайт (14%)
Заголовок : английский
Язык : English
Service kind : Complete Main
Default : Нет
Forced : Нет

Текст #1
Идентификатор : 6
Формат : UTF-8
Идентификатор кодека : S_TEXT/UTF8
Идентификатор кодека/Информация : UTF-8 Plain Text
Продолжительность : 1 ч. 56 м.
Битрейт : 2 бит/сек
Count of elements : 58
Размер потока : 2,20 Кбайт (0%)
Заголовок : русские (forced)
Язык : Russian
Default : Да
Forced : Нет

Текст #2
Идентификатор : 7
Формат : UTF-8
Идентификатор кодека : S_TEXT/UTF8
Идентификатор кодека/Информация : UTF-8 Plain Text
Продолжительность : 1 ч. 56 м.
Битрейт : 81 бит/сек
Count of elements : 1519
Размер потока : 69,6 Кбайт (0%)
Заголовок : русские
Язык : Russian
Default : Нет
Forced : Нет

Текст #3
Идентификатор : 8
Формат : UTF-8
Идентификатор кодека : S_TEXT/UTF8
Идентификатор кодека/Информация : UTF-8 Plain Text
Продолжительность : 1 ч. 55 м.
Битрейт : 57 бит/сек
Count of elements : 1621
Размер потока : 48,9 Кбайт (0%)
Заголовок : английские
Язык : English
Default : Нет
Forced : Нет
скриншот  скриншот  скриншот  
pb.wtf



Скачать Энола Холмс через торрент https://b.radikal.ru/b32/2009/54/2c606d2c505e.jpg Скачать фильм Энола Холмс через торрент бесплантно в хорошем качестве Описание: У 16-летней Энолы Холмс исчезает мать. Она просит помощи у старших братьев Майкрофта и Шерлока, но они воспринимают исчезновение ... 8.3 10 11
Торрент: Зарегистрирован [2020-09-27 18:52] · скачан: 137 раз
Статус: √ проверено
Размер: 3.95 GB
Как cкачать? Как скачать Энола Холмс через торрент | qTorrent

% Раздел Тема Автор DL S | L
Фильмы 2019-2020 [DVDrip, WEB-DLRip, HDrip] (DUB, MVO) [ 1.63 GB ] Энола Холмс / Enola Holmes [2020 WEB-DLRip-AVC] [MVO] [NewComers] от MediaBit Lithuania Скачать
27 | 0
Фильмы (WEB-DL 720p, 1080p) [ 7.2 GB ] Энола Холмс / Enola Holmes [2020 WEB-DL 1080p] 3xMVO bober100 Скачать
26 | 0
Фильмы 2019-2020 [DVDrip, WEB-DLRip, HDrip] (DUB, MVO) [ 1.46 GB ] Энола Холмс / Enola Holmes [2020 WEB-DLRip] [MVO] killermax2013 Скачать
17 | 0

28-11-2019 20:33  

Отключить всю рекламу на сайте

27-09-2020 18:59 Энола Холмс Скачать торрент  

"У 16-летней Энолы Холмс исчезает мать. Она просит помощи у старших братьев Майкрофта и Шерлока, но они воспринимают исчезновение как нечто незначительное. Энола сбегает из дома в Лондон, где натыкается на инспектора Лестрейда и подключается к поискам пропавшего молодого виконта."

Артур Конан Дойл сейчас в гробу перевернулся ...pb.wtf



27-09-2020 19:13 Энола Холмс Скачать торрент  

Посмотрел с детьми, легкое незамысловатое кино, сюжет посредственный на один раз, смотреть можно.pb.wtf



28-09-2020 07:00 Энола Холмс Скачать торрент  

фильм о зарождении феминизма. толерантный как и все современные фильмы. сюжет ни о чем. на раз. но если не посмотрите то ни чего не потеряете. автору спасибо за релиз!pb.wtf



28-09-2020 07:08 Энола Холмс Скачать торрент  

Не тратьте время. Смотреть скучно и неинтересно. Ни о чём.pb.wtf



28-09-2020 16:18 Энола Холмс Скачать торрент  

"..... исчезает мать. Она просит помощи у старших братьев Майкрофта и Шерлока, но они воспринимают исчезновение как нечто незначительное...."
феминистка писала сценарий??? в опу такие ...опусы....pb.wtf



    Дорогой пользователь! Огромная просьба, поблагодарите релизера, оцените раздачу и оставьте свои комментарий, если Вы скачали Энола Холмс через торрент бесплатно! Внесите свою лепту в развитие PiratBit!
    Комментировать посты могут только пользователи прошедшие не сложную регистрацию
    Показать сообщения:    

    Энола Холмс через торрент
    Скачать бесплатно Энола Холмс
    Энола Холмс скачать торрент
    Энола Холмс смотреть онлайн
    Cкачать фильм Энола Холмс бесплатно
    Энола Холмс скачать торрент в хорошем качестве
    Энола Холмс смотреть онлайн бесплатно в хорошем качестве


    Вы не можете начинать темы
    Вы не можете отвечать на сообщения
    Вы не можете редактировать свои сообщения
    Вы не можете удалять свои сообщения
    Вы не можете голосовать в опросах
    Вы не можете прикреплять файлы к сообщениям
    Вы можете скачивать файлы