Anonymous, доброй ночи, присоединяйтесь к нам в Telegram!, здесь всегда актуальный адрес сайта, оперативная поддержка и многое другое!

>

5.6

iTunes

7.4

MVO

5.7

MVO

1

7.7

1 сезон

6.8

iTunes

7.3

1 сезон

13

6.7

1 сезон

8.3

RePack

30

ULTIMATE

pack

9.9

Лицензия

ВАЖНО

ИГРА 18+

pack

7.3

RePack

MK11

7.7

RePack

jed

7.8

RePack

fifa19

8.5

RePack

RDR2

RePack

NEED FOR SPEED™ PAYBACK

4 сезон

9 сезон

Бесстыжие 9 сезон

Все сериалы

все сериалы на PB.wtf

RePack

FAR CRY 5

Anonymous, доброй ночи, мы катастрофически не успеваем собрать деньги на оплату серверов, помогите нам пожалуйста 5,10,15р., для нас важна любая помощь . В качестве благодарности мы отключим Вам всю рекламу на сайте (укажите свой ник в строку Ваше имя)!

×
  
Magnet ссылка

Взрыв / Сезон: 1 / Серии: 1-16 из 16 (Андрей Мармонтов) [2018, Драма, криминал, WEBRip, (Версия 18+)] pb.wtf

Взрыв через торрент pb.wtf

Раздают: 1 [ 0 KB/s ]
Размер: 9.38 GB | Добавлен: 11 мес. назад | Торрент скачан:158 раз
Смотреть онлайн Взрыв | Скачать    Ребята, помогите собрать деньги на оплату серверов!!!

24-09-2020 07:40 Взрыв Скачать торрент  

Взрыв
Год выпуска: 2018
Страна: Россия
Выпущено: LEGIO FELIX по заказу телеканала НТВ
Жанр: Драма, криминал
Продолжительность: ~ 00:48:00
Перевод: Не требуется Русский
Субтитры: отсутствуют
Версия 18+. Внимание! Присутствует ненормативная лексика.

Режиссер: Андрей Мармонтов



В ролях: Дмитрий Чеботарёв, Нина Гогаева, Владислав Павлов, Екатерина Симаходская, Сергей Жарков, Алёна Ковалёва, Егор Клинаев, Алина Бабак, Алексей Лукин, Алексей Матошин, Артём Ешкин, Мария Ульянова, Анна Шкиль, Александр Сергеев (IV), Иван Куколев, Надежда Иванко

Описание: Москва. Наши дни. Простой, знакомый всем спальный район. Подъезд самой обыкновенной пятиэтажки. Некоторые из жильцов знакомы друг с другом, другие просто здороваются при встрече, а кто-то даже и не запоминает лиц своих соседей. Неожиданно все они становятся объединены ужасной трагедией: их подъезд взрывается, превращаясь в кучу дымящихся обломков. В один миг эти люди теряют всё: близких и родственников, крышу над головой, имущество. Одиночество, безысходность, пороки современного общества начинают затягивать их в свои сети. Смогут ли они противостоять этому и начать новую жизнь или так и сгниют на дне? А главное – разобраться в истинных причинах случившегося.

Качество: WEBRip
Формат: AVI

Видео: XviD, ~ 1516 Кбит/с, 704х384
Аудио: 48.0 kHz, AC3 Dolby Digital, 2/0 (L,R) ch, ~ 192 kbps
скриншот  скриншот  скриншот  скриншот  

Общее
Полное имя : C:\Vzryv.2018.WEB-DLRip.25Kuzmich\Vzryv.e01.WEB-DLRip.25Kuzmich.avi
Формат : AVI
Формат/Информация : Audio Video Interleave
Размер файла : 600 Мбайт
Продолжительность : 48 м. 51 с.
Общий поток : 1718 Кбит/сек
Программа кодирования : VirtualDubMod 1.5.10.3 | www.virtualdub-fr.org || (build 2550/release)
Библиотека кодирования : VirtualDubMod build 2550/release

Видео
Идентификатор : 0
Формат : MPEG-4 Visual
Профиль формата : Advanced Simple@L5
Настройки формата : BVOP1
Параметр BVOP формата : 1
Параметр QPel формата : Нет
Параметр GMC формата : Без точки перехода
Параметр матрицы формата : Default (MPEG)
Идентификатор кодека : XVID
Идентификатор кодека/Подсказка : XviD
Продолжительность : 48 м. 51 с.
Продолжительность оригинала : 27 м. 0 с.
Битрейт : 1516 Кбит/сек
Ширина : 704 пикселя
Высота : 384 пикселя
Соотношение сторон : 1,85:1
Частота кадров : 25,000 кадров/сек
Цветовое пространство : YUV
Субдискретизация насыщенности : 4:2:0
Битовая глубина : 8 бит
Тип развёртки : Прогрессивная
Метод сжатия : С потерями
Бит/(Пиксели*Кадры) : 0.180
Размер потока : 236 Мбайт (39%)
Библиотека кодирования : XviD 73

Аудио
Идентификатор : 1
Формат : AC-3
Формат/Информация : Audio Coding 3
Коммерческое название : Dolby Digital
Идентификатор кодека : 2000
Продолжительность : 48 м. 51 с.
Продолжительность оригинала : 27 м. 0 с.
Вид битрейта : Постоянный
Битрейт : 192 Кбит/сек
Каналы : 2 канала
ChannelLayout : L R
Частота : 48,0 КГц
Частота кадров : 31,250 кадров/сек (1536 SPF)
Битовая глубина : 16 бит
Метод сжатия : С потерями
Размер потока : 37,1 Мбайт (6%)
Выравнивание : Разделение по промежуткам
Продолжительность промежутка : 40 мс. (1,00 видеокадр)
Время предзагрузки промежутка : 500 мс.
ServiceKind/String : Complete Main

Внимание! Раздача ведётся путём добавления новых серий; при каждом добавлении создаётся новый торрент.
Чтобы начать докачку новой серии, пользователям необходимо сделать следующее:
1. Остановить скачивание;
2. Удалить старый торрент у себя из клиента (старые серии удалять не надо);
3. Скачать новый торрент и запустить его у себя в клиенте вместо старого, при этом указать клиенту путь в старую папку куда и должно происходить скачивание новых серий. Ваш клиент при этом должен произвести хеширование (проверку) старой папки и будет докачивать только те серии, которых у вас ещё нет. Старые серии при этом не удаляются, а продолжают раздаваться! Eсли вы уже удалили старые серии, то предотвратить повторную закачку старых серий можно, отжав галочку в соответствующих местах при запуске нового торрента.

pb.wtf



Скачать Взрыв через торрент https://img11.lostpic.net/2020/09/24/5bf189b6c13dde528172f53b18698bb5.jpg Скачать, смотреть онлайн Взрыв бесплантно в хорошем качестве Описание: Москва. Наши дни. Простой, знакомый всем спальный район. Подъезд самой обыкновенной пятиэтажки. Некоторые из жильцов знакомы друг ... 9.6 10 14
Торрент: Зарегистрирован [2020-11-12 13:30] · скачан: 158 раз
Статус: √ проверено
Размер: 9.38 GB
Как cкачать? Как скачать Взрыв через торрент | UTorrent

% Раздел Тема Автор DL S | L
TNT serials [ 17.61 GB ] Взрыв / Сезон: 1 / Серии: 1-16 из 16 [2018 WEBRip 720p ] bober100 Скачать
1 | 0
TNT serials [ 9.98 GB ] Взрыв / Сезон: 1 / Серии: 1-16 из 16 [2018 WEBRip-AVC ] bober100 Скачать
1 | 0
TNT serials [ 25.92 GB ] Взрыв / Сезон: 1 / Серии: 1-16 из 16 [2018 WEBRip 1080p ] bober100 Скачать
1 | 0


Последний раз редактировалось: bober100 (2020-11-12 13:30), всего редактировалось 8 раз(а)

28-11-2019 20:33  

Отключить всю рекламу на сайте

24-09-2020 08:00 Взрыв Скачать торрент  

на КП указан год выпуска 2017, на другом трекере 2018, на Premier - 24 сентября 2020. хз кароч, но трейлер ниче так


pb.wtf



24-09-2020 12:55 Взрыв Скачать торрент  

tamburetko писал(а):

на КП указан год выпуска 2017, на другом трекере 2018, на Premier - 24 сентября 2020. хз кароч, но трейлер ниче так



При этом все серии давно в свободном доступе, а тут только 2 - его решили ещё раз переснять, но в дань моде навтыкать матюков?pb.wtf



    Дорогой пользователь! Огромная просьба, поблагодарите релизера, оцените раздачу и оставьте свои комментарий, если Вы скачали Взрыв через торрент бесплатно!
    Комментировать посты могут только пользователи прошедшие не сложную регистрацию
    Показать сообщения:    

    Взрыв через торрент
    Скачать бесплатно Взрыв
    Взрыв скачать торрент
    Взрыв смотреть онлайн
    Cкачать фильм Взрыв бесплатно
    Взрыв скачать торрент в хорошем качестве
    Взрыв смотреть онлайн бесплатно в хорошем качестве


    Вы не можете начинать темы
    Вы не можете отвечать на сообщения
    Вы не можете редактировать свои сообщения
    Вы не можете удалять свои сообщения
    Вы не можете голосовать в опросах
    Вы не можете прикреплять файлы к сообщениям
    Вы можете скачивать файлы