2 сезон

iTunes

MVO

1

2 сезон

iTunes

iTunes

1 сезон

RePack

30

Новинка

ВАЖНО

ИГРА 18+

pack

RePack

MK11
pack

Легкие деньги

RePack

jed

RePack

fifa19

RePack

RDR2

RePack

NEED FOR SPEED™ PAYBACK

4 сезон

9 сезон

Бесстыжие 9 сезон

Все сериалы

все сериалы на PB.wtf

RePack

FAR CRY 5

Anonymous, добрый вечер, мы не успеваем собрать деньги на оплату серверов за декабрь и январь, помогите нам пожалуйста в это трудное время. В качестве благодарности мы отключим Вам всю рекламу на сайте (укажите свой ник в строку Ваше имя)!

×
  
Magnet ссылка

Тьма: Вторжение / Столкновение с тьмой / Dark Encounter (Карл Страти) [2019, Ужасы, фантастика, BDRip 720p] MVO [iTunes] pb.wtf

Тьма: Вторжение через торрент pb.wtf

Раздают: 2 [ 0 KB/s ]
Размер: 4.11 GB | Добавлен: 3 мес. 22 д. назад | Торрент скачан:64 раза
Скачать  

24-09-2020 09:06 Тьма: Вторжение Скачать торрент  

Тьма: Вторжение | Столкновение с тьмой | Dark Encounter
Год выпуска: 2019
Страна: Великобритания
Студия: Goldfinch, Strathie Film
Жанр: Ужасы, фантастика
Продолжительность: 01:38:04
Перевод: Профессиональный многоголосый | iTunes
Субтитры: Русские (Forced), английские

Режиссер: Карл Страти

rating

В ролях: Лора Фрейзер, Мел Райдо, Сид Феникс, Грант Мастерс, Спайк Уайт, Элис Лоу, Николас Пиннок, Винсент Риган, Шон Нопп

Описание: История разворачивается спустя год после таинственного исчезновения 8-летней девочки. Однажды вечером, после того как ее семья вернулась домой с поминальной службы, в лесу неподалеку от них зажигаются странные огни. Вскоре герои узнают страшные подробности о пропаже маленькой девочки.

Качество: BDRip 720p
Формат: MKV

Видео: MPEG-4 AVC, 1280x538, 4971 Kbit/s, 23.976 fps
Аудио #01: 48 kHz, AC3, 5.1, 384 Kbps | iTunes | RUS |
Аудио #02: 48 kHz, AC3, 5.1, 640 Kbps | Оригинал | ENG |
скриншот  скриншот  скриншот  скриншот  скриншот  

General
Unique ID: 302599631250685569086824614645035139709 (0xE3A691B07286628BB601E4C8BC1F827D)
Complete name: D:Video111Dark.Encounter.2019.BDRip.720p.seleZen.mkv
Format: Matroska
Format version: Version 4
File size: 4.11 GiB
Duration: 1 h 38 min
Overall bit rate: 5 994 kb/s
Movie name: Dark Encounter 2019 from селезень
Encoded date: UTC 2020-09-23 09:23:27
Writing application: mkvmerge v40.0.0 ('Old Town Road + Pony') 64-bit
Writing library: libebml v1.3.9 + libmatroska v1.5.2

Video
ID: 1
Format: AVC
Format/Info: Advanced Video Codec
Format profile: High@L4.1
Format settings: CABAC / 12 Ref Frames
Format settings, CABAC: Yes
Format settings, Reference: 12 frames
Codec ID: V_MPEG4/ISO/AVC
Duration: 1 h 38 min
Bit rate: 4 971 kb/s
Width: 1 280 pixels
Height: 538 pixels
Display aspect ratio: 2.40:1
Frame rate mode: Constant
Frame rate: 23.976 (24000/1001) FPS
Color space: YUV
Chroma subsampling: 4:2:0
Bit depth: 8 bits
Scan type: Progressive
Bits/(Pixel*Frame): 0.301
Stream size: 3.41 GiB (83%)
Title: Encoded by seleZen
Writing library: x264 core 148 r2705kMod 3f5ed56
Encoding settings: cabac=1 / ref=12 / deblock=1:-2:-2 / analyse=0x3:0x133 / me=umh / subme=10 / psy=1 / fade_compensate=0.00 / psy_rd=1.03:0.02 / mixed_ref=1 / me_range=32 / chroma_me=1 / trellis=2 / 8x8dct=1 / cqm=0 / deadzone=21, 11 / fast_pskip=0 / chroma_qp_offset=-3 / threads=17 / lookahead_threads=2 / sliced_threads=0 / nr=0 / decimate=0 / interlaced=0 / bluray_compat=0 / constrained_intra=0 / fgo=0 / bframes=9 / b_pyramid=2 / b_adapt=2 / b_bias=0 / direct=3 / weightb=1 / open_gop=0 / weightp=2 / keyint=240 / keyint_min=23 / scenecut=40 / intra_refresh=0 / rc_lookahead=50 / rc=crf / mbtree=0 / crf=16.8000 / qcomp=0.60 / qpmin=0 / qpmax=51 / qpstep=4 / vbv_maxrate=50000 / vbv_bufsize=62500 / crf_max=0.0 / nal_hrd=none / filler=0 / ip_ratio=1.40 / pb_ratio=1.30 / aq=3:0.80
Language: English
Default: Yes
Forced: No

Audio #1
ID: 2
Format: AC-3
Format/Info: Audio Coding 3
Commercial name: Dolby Digital
Codec ID: A_AC3
Duration: 1 h 37 min
Bit rate mode: Constant
Bit rate: 384 kb/s
Channel(s): 6 channels
Channel layout: L R C LFE Ls Rs
Sampling rate: 48.0 kHz
Frame rate: 31.250 FPS (1536 SPF)
Compression mode: Lossy
Stream size: 267 MiB (6%)
Title: iTunes
Language: Russian
Service kind: Complete Main
Default: Yes
Forced: Yes

Audio #2
ID: 3
Format: AC-3
Format/Info: Audio Coding 3
Commercial name: Dolby Digital
Codec ID: A_AC3
Duration: 1 h 38 min
Bit rate mode: Constant
Bit rate: 640 kb/s
Channel(s): 6 channels
Channel layout: L R C LFE Ls Rs
Sampling rate: 48.0 kHz
Frame rate: 31.250 FPS (1536 SPF)
Compression mode: Lossy
Stream size: 449 MiB (11%)
Title: Original
Language: English
Service kind: Complete Main
Default: No
Forced: No

Text #1
ID: 4
Format: UTF-8
Codec ID: S_TEXT/UTF8
Codec ID/Info: UTF-8 Plain Text
Duration: 1 h 26 min
Bit rate: 0 b/s
Count of elements: 8
Stream size: 635 Bytes (0%)
Title: Forced
Language: Russian
Default: Yes
Forced: Yes

Text #2
ID: 5
Format: UTF-8
Codec ID: S_TEXT/UTF8
Codec ID/Info: UTF-8 Plain Text
Duration: 1 h 27 min
Bit rate: 24 b/s
Count of elements: 565
Stream size: 15.4 KiB (0%)
Title: Full
Language: English
Default: No
Forced: No

Menu
00:00:00.000: en:Chapter 01
00:05:47.222: en:Chapter 02
00:15:34.559: en:Chapter 03
00:24:46.360: en:Chapter 04
00:31:32.015: en:Chapter 05
00:42:15.199: en:Chapter 06
00:48:20.898: en:Chapter 07
00:58:17.994: en:Chapter 08
01:06:39.621: en:Chapter 09
01:18:16.150: en:Chapter 10
01:24:29.273: en:Chapter 11
01:33:17.342: en:Chapter 12

pb.wtf



Скачать Тьма: Вторжение через торрент https://i112.fastpic.ru/big/2020/0923/ba/152efbaff3ca6c45a8b4a391eccc60ba.jpg Скачать фильм Тьма: Вторжение через торрент бесплантно в хорошем качестве Описание: История разворачивается спустя год после таинственного исчезновения 8-летней девочки. Однажды вечером, после того как ее семья ... 10 10 4
Торрент: Зарегистрирован [2020-09-24 09:06] · скачан: 64 раз
Статус: √ проверено
Размер: 4.11 GB
Как cкачать? Как скачать Тьма: Вторжение через торрент | UTorrent

% Раздел Тема Автор DL S | L
Фильмы [HD 720p, 1080p] (Хороший звук DUB, MVO) [ 10.21 GB ] Тьма: Вторжение / Столкновение с тьмой / Dark Encounter [2019 BDRip 1080p] MVO bober100 Скачать
1 | 0
Фильмы 2019-2020 [DVDrip, WEB-DLRip, HDrip] (DUB, MVO) [ 745 MB ] Тьма: Вторжение / Столкновение с тьмой / Dark Encounter [2019 HDRip-AVC] [MVO] от MediaBit Lithuania Скачать
4 | 0
Фильмы 2019-2020 [DVDrip, WEB-DLRip, HDrip] (DUB, MVO) [ 745 MB ] Тьма: Вторжение / Столкновение с тьмой / Dark Encounter [2019 BDRip] MVO bober100 Скачать
1 | 0
Фильмы (Blu-ray, BD-Remux, HDDVD) [ 15.04 GB ] Тьма: Вторжение / Столкновение с тьмой / Dark Encounter [2019 BD Remux 1080p] MVO bober100 Скачать
2 | 0
Фильмы 2019-2020 [DVDrip, WEB-DLRip, HDrip] (DUB, MVO) [ 2.13 GB ] Тьма: Вторжение / Столкновение с тьмой / Dark Encounter [2019 BDRip-AVC] MVO bober100 Скачать
4 | 0
Фильмы 2019-2020 [DVDrip, WEB-DLRip, HDrip] (DUB, MVO) [ 1.45 GB ] Тьма: Вторжение / Столкновение с тьмой / Dark Encounter [2019 BDRip-AVC] MVO bober100 Скачать
3 | 0
Фильмы 2019-2020 [DVDrip, WEB-DLRip, HDrip] (DUB, MVO) [ 1.46 GB ] Тьма: Вторжение / Столкновение с тьмой / Dark Encounter [2019 BDRip] MVO bober100 Скачать
1 | 0

28-11-2019 20:33  

Отключить всю рекламу на сайте

    Дорогой пользователь! Огромная просьба, поблагодарите релизера, оцените раздачу и оставьте свои комментарий, если Вы скачали Тьма: Вторжение через торрент бесплатно! Внесите свою лепту в развитие PiratBit!
    Комментировать посты могут только пользователи прошедшие не сложную регистрацию
    Показать сообщения:    

    Тьма: Вторжение через торрент
    Скачать бесплатно Тьма: Вторжение
    Тьма: Вторжение скачать торрент
    Тьма: Вторжение смотреть онлайн
    Cкачать фильм Тьма: Вторжение бесплатно
    Тьма: Вторжение скачать торрент в хорошем качестве
    Тьма: Вторжение смотреть онлайн бесплатно в хорошем качестве


    Вы не можете начинать темы
    Вы не можете отвечать на сообщения
    Вы не можете редактировать свои сообщения
    Вы не можете удалять свои сообщения
    Вы не можете голосовать в опросах
    Вы не можете прикреплять файлы к сообщениям
    Вы можете скачивать файлы