2 сезон

iTunes

MVO

1

2 сезон

iTunes

iTunes

1 сезон

RePack

30

Ultimate

ВАЖНО

ИГРА 18+

pack

RePack

MK11
pack

Легкие деньги

RePack

jed

RePack

fifa19

RePack

RDR2

RePack

NEED FOR SPEED™ PAYBACK

4 сезон

9 сезон

Бесстыжие 9 сезон

Все сериалы

все сериалы на PB.wtf

RePack

FAR CRY 5

Anonymous, доброе утро, мы не успеваем собрать деньги на оплату серверов за декабрь и январь, помогите нам пожалуйста в это трудное время. В качестве благодарности мы отключим Вам всю рекламу на сайте (укажите свой ник в строку Ваше имя)!

×
  
Magnet ссылка

Пожизненно / Life (Тед Демме) [1999 г., Комедия, драма, криминал, BDRip 720p / 60 FPS, Профессиональный (многоголосый)] от R.G. HD-Films pb.wtf

Пожизненно через торрент pb.wtf

Раздают: 4 [ 0 KB/s ]
Размер: 4.14 GB | Добавлен: 3 мес. 21 д. назад | Торрент скачан:121 раз
Скачать  

24-09-2020 14:45 Пожизненно Скачать торрент  

Пожизненно / Life
Год выпуска: 1999
Страна: США
Жанр: Комедия, драма, криминал
Продолжительность: 01:48:30
Перевод: Профессиональный (многоголосый)

Режиссер: Тед Демме

Бюджет: $80 000 000
Премьера в мире: 13 апреля 1999

rating

В ролях: Эдди Мёрфи, Мартин Лоуренс, Обба Бабатунде, Ник Кассаветис, Энтони Андерсон, Бэрри Шебака Хенли, Брент Дженнингс, Берни Мак, Мигель А. Нуньес мл., Майкл Талиферро

Описание: Нью-Йорк, 1932 год. Сухой закон загнал добропорядочных, но страстно желающих выпить граждан в подпольные питейные заведения. В одном из таких притонов и пересеклись дорожки мелкого воришки Рэя Гибсона и незадачливого банковского служащего Клода Бэнкса. По роковому стечению обстоятельств Рэй и Клод не угодили местному боссу мафии и влипли в большие неприятности. Чтобы реабилитироваться перед разгневанным бандитом, приятели согласились перегнать набитый спиртным грузовик из штата Миссисипи в Нью — Йорк. Но по дороге их арестовали, незаконно обвинили в убийстве и приговорили к пожизненному заключению в местной колонии строгого режима. Теперь товарищам по несчастью предстоит провести свою жизнь в компании уголовников, не потеряв при этом, однако, надежду совершить побег и отомстить своим обидчикам…

Качество: BDRip 720p / 60 FPS
Формат: MKV
Видео кодек: H.264
Аудио кодек: AC3
Видео: x264, 1280 x 696 ( 1,85:1 ), 5491 kbps, 60,000 fps, ( 0.103 bpp)
Аудио#1: Русский, AC-3, 48.0 KHz, 2 ch, 192 Kbps MVO
Релиз от: скриншот   скриншот   скриншот   скриншот   скриншот   скриншот  Автор рипа: slaventi-69
x264 [info]: frame I:1459 Avg QP:17.39 size:109415
x264 [info]: frame P:90182 Avg QP:18.48 size: 25669
x264 [info]: frame B:283697 Avg QP:21.16 size: 6412
x264 [info]: consecutive B-frames: 2.6% 2.1% 8.8% 19.1% 54.0% 13.4%


Общее
Уникальный идентификатор : 337107479284772023602911298069872007654 (0xFD9C89F43EE8CF6A3F48AEB970C059E6)
Полное имя : F:\Life.(1999).BDRip.720p.(60 Fps).mkv
Формат : Matroska
Версия формата : Version 4
Размер файла : 4,14 Гбайт
Продолжительность : 1 ч. 44 м.
Общий поток : 5687 Кбит/сек
Название фильма : Пожизненно / Life (1999) BDRip 720p (60 Fps)
Дата кодирования : UTC 2020-09-18 14:37:41
Программа кодирования : mkvmerge v35.0.0 ('All The Love In The World') 64-bit
Библиотека кодирования : libebml v1.3.9 + libmatroska v1.5.2

Видео
Идентификатор : 1
Формат : AVC
Формат/Информация : Advanced Video Codec
Профиль формата : High@L4.1
Настройки формата : CABAC / 9 Ref Frames
Параметр CABAC формата : Да
Параметр RefFrames формата : 9 кадров
Идентификатор кодека : V_MPEG4/ISO/AVC
Продолжительность : 1 ч. 44 м.
Битрейт : 5491 Кбит/сек
Ширина : 1280 пикселей
Высота : 696 пикселей
Соотношение сторон : 1,85:1
Режим частоты кадров : Постоянный
Частота кадров : 60,000 кадров/сек
Цветовое пространство : YUV
Субдискретизация насыщенности : 4:2:0
Битовая глубина : 8 бит
Тип развёртки : Прогрессивная
Бит/(Пиксели*Кадры) : 0.103
Размер потока : 4,00 Гбайт (97%)
Заголовок : slaventi-69 ( R.G. HD-Films | 60 fps )
Библиотека кодирования : x264 core 130 r2273 b3065e6
Настройки программы : cabac=1 / ref=9 / deblock=1:0:0 / analyse=0x3:0x113 / me=umh / subme=9 / psy=1 / psy_rd=1.00:0.00 / mixed_ref=1 / me_range=32 / chroma_me=1 / trellis=2 / 8x8dct=1 / cqm=0 / deadzone=21,11 / fast_pskip=1 / chroma_qp_offset=-2 / threads=10 / lookahead_threads=4 / sliced_threads=0 / nr=0 / decimate=1 / interlaced=0 / bluray_compat=0 / constrained_intra=0 / bframes=5 / b_pyramid=2 / b_adapt=2 / b_bias=0 / direct=1 / weightb=1 / open_gop=0 / weightp=2 / keyint=600 / keyint_min=60 / scenecut=40 / intra_refresh=0 / rc=crf / mbtree=0 / crf=16.7 / qcomp=0.60 / qpmin=0 / qpmax=69 / qpstep=4 / ip_ratio=1.40 / pb_ratio=1.30 / aq=1:1.00
Язык : Russian
Default : Да
Forced : Нет

Аудио
Идентификатор : 2
Формат : AC-3
Формат/Информация : Audio Coding 3
Коммерческое название : Dolby Digital
Идентификатор кодека : A_AC3
Продолжительность : 1 ч. 44 м.
Вид битрейта : Постоянный
Битрейт : 192 Кбит/сек
Каналы : 2 канала
Channel layout : L R
Частота : 48,0 КГц
Частота кадров : 31,250 кадров/сек (1536 SPF)
Битовая глубина : 16 бит
Метод сжатия : С потерями
Размер потока : 143 Мбайт (3%)
Заголовок : MVO
Язык : Russian
ServiceKind/String : Complete Main
Default : Да
Forced : Нет

Меню
00:00:00.000 : en:(безымянный)
00:02:24.770 : en:(безымянный)
00:04:01.533 : en:(безымянный)
00:08:24.254 : en:(безымянный)
00:11:23.182 : en:(безымянный)
00:16:29.614 : en:(безымянный)
00:25:46.295 : en:(безымянный)
00:30:10.183 : en:(безымянный)
00:38:33.478 : en:(безымянный)
00:47:56.457 : en:(безымянный)
00:51:09.358 : en:(безымянный)
00:58:11.279 : en:(безымянный)
01:05:45.150 : en:(безымянный)
01:08:36.446 : en:(безымянный)
01:18:16.483 : en:(безымянный)
01:29:53.221 : en:(безымянный)
01:36:42.296 : en:(безымянный)
01:42:58.255 : en:(безымянный)

Просьба к переливающим на другие сайты, в оформлении указывайте пожалуйста авторство группы R.G. HD-Films pb.wtf



Скачать Пожизненно через торрент http://s016.radikal.ru/i335/1604/4b/7e7aeb75d20d.jpg Скачать фильм Пожизненно через торрент бесплантно в хорошем качестве Описание: Нью-Йорк, 1932 год. Сухой закон загнал добропорядочных, но страстно желающих выпить граждан в подпольные питейные заведения. В ... 10 10 3
Торрент: Зарегистрирован [2020-09-24 14:45] · скачан: 121 раз
Статус: √ проверено
Размер: 4.14 GB
Как cкачать? Как скачать Пожизненно через торрент | UTorrent

28-11-2019 20:33  

Отключить всю рекламу на сайте

24-09-2020 17:11 Пожизненно Скачать торрент  

Спасибо автору!!!!pb.wtf



24-09-2020 17:17 Пожизненно Скачать торрент  

malmar2007 писал(а):

Спасибо автору!!!!

Пожалуйстаpb.wtf



25-09-2020 10:07 Пожизненно Скачать торрент  

Большое мерси! Два гениальных черных в одном флаконе!pb.wtf



    Дорогой пользователь! Огромная просьба, поблагодарите релизера, оцените раздачу и оставьте свои комментарий, если Вы скачали Пожизненно через торрент бесплатно! Внесите свою лепту в развитие PiratBit!
    Комментировать посты могут только пользователи прошедшие не сложную регистрацию
    Показать сообщения:    

    Пожизненно через торрент
    Скачать бесплатно Пожизненно
    Пожизненно скачать торрент
    Пожизненно смотреть онлайн
    Cкачать фильм Пожизненно бесплатно
    Пожизненно скачать торрент в хорошем качестве
    Пожизненно смотреть онлайн бесплатно в хорошем качестве


    Вы не можете начинать темы
    Вы не можете отвечать на сообщения
    Вы не можете редактировать свои сообщения
    Вы не можете удалять свои сообщения
    Вы не можете голосовать в опросах
    Вы не можете прикреплять файлы к сообщениям
    Вы можете скачивать файлы