Ссылка на приватное зеркало нашего сайта всего за 1$. Внимание количество ограничено!!!

2 сезон

iTunes

1 сезон

1

iTunes

iTunes

iTunes

1 сезон

RePack

30

ИГРА 18+

pack

ВАЖНО

!!Акция!!

Alien_RageХит недели

RePack

MK11
pack

Забери бонус

RePack

jed

!!Акция!!

Alien_Rage

RePack

fifa19

RePack

Assassins Creed: Odyssey

RePack

NEED FOR SPEED™ PAYBACK

4 сезон

9 сезон

Бесстыжие 9 сезон

Все сериалы

все сериалы на PB.wtf

RePack

FAR CRY 5
  

Элис / Alice (Жозефин Маккеррас) [2019, Драма, мелодрама, комедия, WEB-DL 1080p] MVO [iTunes] pb.wtf

Элис через торрент pb.wtf

Раздают: 3 [ 0 KB/s ]
Размер: 3.89 GB | Добавлен: 1 мес. 1 д. назад | Торрент скачан:80 раз
Скачать  

24-09-2020 15:22 Элис Скачать торрент  

Элис | Alice
Год выпуска: 2019
Страна: Великобритания, Австралия, Франция
Студия: Raindance Raw Talent
Жанр: Драма, мелодрама, комедия
Продолжительность: 01:45:09
Перевод: Профессиональный многоголосый | iTunes
Субтитры: Французские (Forced), английские

Режиссер: Жозефин Маккеррас

rating

В ролях: Эмили Пипоннье, Мартин Сваби, Хлоя Борхэм, Жюль Мило Леви Маккеррас, Ариана Родригес Джиральдо, Джульетт Трезанини, Кристоф Фавр, Филипп Де Монтс, Дэвид Коберн, Роберт Бёрнс

Описание: Элис случайно узнает, что ее любимый муж имеет пристрастие: он пользуется эскорт-услугами и на эти развлечения спустил все семейные сбережения. Теперь Элис сама решила заняться эскорт услугами, чтобы обеспечить себя и своего сына, и, похоже, у нее это неплохо получилось.

Качество: WEB-DL 1080p
Формат: MKV

Видео: MPEG-4 AVC, 1920x792, 4530 Kbit/s, 25.000 fps
Аудио#1: 48 kHz, AC3, 2.0, 384 Kbps | iTunes | RUS |
Аудио#2: 48 kHz, AC3, 5.1, 384 Kbps | Оригинал | FRE |
скриншот  скриншот  скриншот  скриншот  скриншот  

General
Unique ID : 246080921354220531121480345636768482279 (0xB921762608A591468D0100D6192283E7)
Complete name : D:Video111Alice.2019.WEB-DL.1080p.seleZen.mkv
Format : Matroska
Format version : Version 4
File size : 3.89 GiB
Duration : 1 h 45 min
Overall bit rate : 5 300 kb/s
Movie name : Alice 2019 from селезень
Encoded date : UTC 2020-09-24 13:56:22
Writing application : mkvmerge v40.0.0 ('Old Town Road + Pony') 64-bit
Writing library : libebml v1.3.9 + libmatroska v1.5.2
Cover : Yes
Attachments : cover.jpg

Video
ID : 1
Format : AVC
Format/Info : Advanced Video Codec
Format profile : High@L4
Format settings : CABAC / 5 Ref Frames
Format settings, CABAC : Yes
Format settings, Reference : 5 frames
Codec ID : V_MPEG4/ISO/AVC
Duration : 1 h 45 min
Bit rate : 4 530 kb/s
Width : 1 920 pixels
Height : 792 pixels
Display aspect ratio : 2.40:1
Frame rate mode : Constant
Frame rate : 25.000 FPS
Color space : YUV
Chroma subsampling : 4:2:0
Bit depth : 8 bits
Scan type : Progressive
Bits/(Pixel*Frame) : 0.119
Stream size : 3.33 GiB (85%)
Language : English
Default : Yes
Forced : No
Color range : Limited
Color primaries : BT.709
Transfer characteristics : BT.709
Matrix coefficients : BT.709

Audio #1
ID : 2
Format : AC-3
Format/Info : Audio Coding 3
Commercial name : Dolby Digital
Codec ID : A_AC3
Duration : 1 h 45 min
Bit rate mode : Constant
Bit rate : 384 kb/s
Channel(s) : 2 channels
Channel layout : L R
Sampling rate : 48.0 kHz
Frame rate : 31.250 FPS (1536 SPF)
Compression mode : Lossy
Stream size : 289 MiB (7%)
Language : Russian
Service kind : Complete Main
Default : Yes
Forced : Yes

Audio #2
ID : 3
Format : AC-3
Format/Info : Audio Coding 3
Commercial name : Dolby Digital
Codec ID : A_AC3
Duration : 1 h 45 min
Bit rate mode : Constant
Bit rate : 384 kb/s
Channel(s) : 6 channels
Channel layout : L R C LFE Ls Rs
Sampling rate : 48.0 kHz
Frame rate : 31.250 FPS (1536 SPF)
Compression mode : Lossy
Stream size : 289 MiB (7%)
Title : Original
Language : French
Service kind : Complete Main
Default : No
Forced : No

Text #1
ID : 4
Format : UTF-8
Codec ID : S_TEXT/UTF8
Codec ID/Info : UTF-8 Plain Text
Duration : 5 min 19 s
Bit rate : 17 b/s
Count of elements : 28
Stream size : 705 Bytes (0%)
Title : French (Forced)
Language : French
Default : No
Forced : No

Text #2
ID : 5
Format : UTF-8
Codec ID : S_TEXT/UTF8
Codec ID/Info : UTF-8 Plain Text
Duration : 1 h 42 min
Bit rate : 38 b/s
Count of elements : 1023
Stream size : 29.0 KiB (0%)
Title : English (Full)
Language : English
Default : No
Forced : No

Menu
00:00:00.000 : en:1
00:09:19.000 : en:2
00:14:42.000 : en:3
00:20:18.000 : en:4
00:27:00.000 : en:5
00:32:02.000 : en:6
00:38:55.000 : en:7
00:46:39.000 : en:8
00:54:35.000 : en:9
00:59:49.000 : en:10
01:05:00.000 : en:11
01:12:33.000 : en:12
01:20:34.000 : en:13
01:26:47.000 : en:14
01:35:59.000 : en:15
01:42:44.000 : en:16

pb.wtf



Скачать Элис через торрент https://i112.fastpic.ru/big/2020/0924/a3/3a8adbc42073b8d13bfc6052a163bda3.jpg Скачать фильм Элис через торрент бесплантно в хорошем качестве Описание: Элис случайно узнает, что ее любимый муж имеет пристрастие: он пользуется эскорт-услугами и на эти развлечения спустил все ... 10 10 3
Торрент: Зарегистрирован [2020-09-24 15:22] · скачан: 80 раз
Статус: √ проверено
Размер: 3.89 GB
Как cкачать? Как скачать Элис через торрент | qTorrent

% Раздел Тема Автор DL S | L
Фильмы до 2000 г. [ 1.4 GB ] Боб и Кэрол Тед и Элис / Bob & Carol & Ted & Alice [1969 HDRip] MVO koenig Скачать
1 | 0
Зарубежные сериалы [ 27.74 GB ] Легенды завтрашнего дня / DC's Legends of Tomorrow / Сезон: 3 / Серии 1-18 из 18 [2017 WEB-DL 720p] MVO [BaibaKo] GEKADOL Скачать
1 | 0
Зарубежные сериалы [ 13.5 GB ] Легенды завтрашнего дня / DC's Legends of Tomorrow / Сезон: 2 / Серии 1-17 из 17 [2016 WEB-DLRip-AVC] MVO [BaibaKo] GEKADOL Скачать
1 | 0
Порно фильмы HD [ 1.51 GB ] Элис Тэпин / Alice Tapine [2015 All sex Oral Outdoor. WEB-DL 720p Оригинальный] DJASFUL Скачать
1 | 0
Фильмы (Blu-ray, BD-Remux, HDDVD) [ 30.11 GB ] Всё ещё Элис / Still Alice [2014 Blu-Ray] / Russian Mafia Скачать
1 | 0
Фильмы 2014 [DVDrip, WEB-DLRip, HDrip] [ 2.18 GB ] Всё ещё Элис / Still Alice [2014 BDRip-AVC] MVO [] potroks Скачать
3 | 0
Фильмы 2014 [DVDrip, WEB-DLRip, HDrip] [ 746 MB ] Всё ещё Элис / Still Alice [2014 BDRip-AVC] MVO () sokol_ok Скачать
2 | 0

28-11-2019 20:33  

Отключить всю рекламу на сайте

    Дорогой пользователь! Огромная просьба, поблагодарите релизера, оцените раздачу и оставьте свои комментарий, если Вы скачали Элис через торрент бесплатно! Внесите свою лепту в развитие PiratBit!
    Комментировать посты могут только пользователи прошедшие не сложную регистрацию
    Показать сообщения:    

    Элис через торрент
    Скачать бесплатно Элис
    Элис скачать торрент
    Элис смотреть онлайн
    Cкачать фильм Элис бесплатно
    Элис скачать торрент в хорошем качестве
    Элис смотреть онлайн бесплатно в хорошем качестве


    Вы не можете начинать темы
    Вы не можете отвечать на сообщения
    Вы не можете редактировать свои сообщения
    Вы не можете удалять свои сообщения
    Вы не можете голосовать в опросах
    Вы не можете прикреплять файлы к сообщениям
    Вы можете скачивать файлы