Ссылка на приватное зеркало нашего сайта всего за 1$. Внимание количество ограничено!!!

2 сезон

iTunes

1 сезон

1

2 сезон

2 сезон

iTunes

1 сезон

RePack

30

Ultimate

ВАЖНО

ИГРА 18+

pack

RePack

MK11
pack

Забери бонус

RePack

jed

!!Акция!!

Alien_Rage

RePack

fifa19

RePack

Assassins Creed: Odyssey

RePack

NEED FOR SPEED™ PAYBACK

4 сезон

9 сезон

Бесстыжие 9 сезон

Все сериалы

все сериалы на PB.wtf

RePack

FAR CRY 5
  

Сердца и кости / Hearts and Bones (Бен Лоуренс) [2019, Драма, WEB-DL 1080p] MVO [iTunes] pb.wtf

Сердца и кости через торрент pb.wtf

Размер: 4.09 GB | Добавлен: 2 мес. 2 д. назад | Торрент скачан:26 раз
Скачать  

24-09-2020 15:28 Сердца и кости Скачать торрент  

Сердца и кости | Hearts and Bones
Год выпуска: 2019
Страна: Австралия
Студия: Night Kitchen Productions, Spectrum Films
Жанр: Драма
Продолжительность: 01:50:11
Перевод: Профессиональный многоголосый | iTunes
Субтитры: отсутствуют

Режиссер: Бен Лоуренс

rating

В ролях: Хьюго Уивинг, Эндрю Лури, Хейли МакЭлхинни, Гассин Обейде Аламеддин, Мохамед Ламин Бангура, Ава Кариофиллис, Ден Ден, Дереб Десалень, Алан Дьюкс, Тэндай Дзвайро

Описание: Военный фотограф Дэниел готовит выставку своих работ, снятых в горячих точках по всему миру. Узнав об этом, на его пороге появляется Себастьян, житель одной из деревень Судана, где Дэниел запечатлел ужасные события. Себастьян считает, что его народ достаточно настрадался и просит фотографа исключить эти снимки из экспозиции выставки.

Качество: WEB-DL 1080p
Формат: MKV

Видео: MPEG-4 AVC, 1920x804, 4541 Kbit/s, 24.000 fps
Аудио#1: 48 kHz, AC3, 2.0, 384 Kbps | iTunes | RUS |
Аудио#2: 48 kHz, AC3, 5.1, 384 Kbps | Оригинал | ENG |
скриншот  скриншот  скриншот  скриншот  скриншот  

General
Unique ID : 276723758784976683960781613404959362013 (0xD02F0EAD9ED549683F62AC70A6294BDD)
Complete name : D:Video111Hearts.And.Bones.2019.WEB-DL.1080p.seleZen.mkv
Format : Matroska
Format version : Version 4
File size : 4.09 GiB
Duration : 1 h 50 min
Overall bit rate : 5 311 kb/s
Movie name : Hearts And Bones 2019
Encoded date : UTC 2020-09-24 14:34:25
Writing application : mkvmerge v40.0.0 ('Old Town Road + Pony') 64-bit
Writing library : libebml v1.3.9 + libmatroska v1.5.2

Video
ID : 1
Format : AVC
Format/Info : Advanced Video Codec
Format profile : High@L4
Format settings : CABAC / 5 Ref Frames
Format settings, CABAC : Yes
Format settings, Reference : 5 frames
Codec ID : V_MPEG4/ISO/AVC
Duration : 1 h 50 min
Bit rate : 4 541 kb/s
Width : 1 920 pixels
Height : 804 pixels
Display aspect ratio : 2.40:1
Frame rate mode : Constant
Frame rate : 24.000 FPS
Color space : YUV
Chroma subsampling : 4:2:0
Bit depth : 8 bits
Scan type : Progressive
Bits/(Pixel*Frame) : 0.123
Stream size : 3.50 GiB (86%)
Language : English
Default : Yes
Forced : No
Color range : Limited
Color primaries : BT.709
Transfer characteristics : BT.709
Matrix coefficients : BT.709

Audio #1
ID : 2
Format : AC-3
Format/Info : Audio Coding 3
Commercial name : Dolby Digital
Codec ID : A_AC3
Duration : 1 h 50 min
Bit rate mode : Constant
Bit rate : 384 kb/s
Channel(s) : 2 channels
Channel layout : L R
Sampling rate : 48.0 kHz
Frame rate : 31.250 FPS (1536 SPF)
Compression mode : Lossy
Stream size : 303 MiB (7%)
Language : Russian
Service kind : Complete Main
Default : Yes
Forced : Yes

Audio #2
ID : 3
Format : AC-3
Format/Info : Audio Coding 3
Commercial name : Dolby Digital
Codec ID : A_AC3
Duration : 1 h 50 min
Bit rate mode : Constant
Bit rate : 384 kb/s
Channel(s) : 6 channels
Channel layout : L R C LFE Ls Rs
Sampling rate : 48.0 kHz
Frame rate : 31.250 FPS (1536 SPF)
Compression mode : Lossy
Stream size : 303 MiB (7%)
Language : English
Service kind : Complete Main
Default : No
Forced : No

Menu
00:00:00.000 : en:1
00:10:04.958 : en:2
00:19:57.166 : en:3
00:30:45.581 : en:4
00:40:38.289 : en:5
00:52:07.705 : en:6
01:00:15.913 : en:7
01:09:51.663 : en:8
01:19:55.454 : en:9
01:30:31.911 : en:10
01:40:16.702 : en:11
01:44:33.784 : en:12

pb.wtf



Скачать Сердца и кости через торрент https://i112.fastpic.ru/big/2020/0924/2b/d3277951f34e7da1906d0f18104ed92b.jpg Скачать фильм Сердца и кости через торрент бесплантно в хорошем качестве Описание: Военный фотограф Дэниел готовит выставку своих работ, снятых в горячих точках по всему миру. Узнав об этом, на его пороге ... 10 10 2
Торрент: Зарегистрирован [2020-09-24 15:28] · скачан: 26 раз
Статус: √ проверено
Размер: 4.09 GB
Как cкачать? Как скачать Сердца и кости через торрент | qTorrent

% Раздел Тема Автор DL S | L
Фильмы 2019-2020 [DVDrip, WEB-DLRip, HDrip] (DUB, MVO) [ 1.7 GB ] Сердца и кости / Hearts and Bones [2019 WEB-DLRip-AVC] [MVO] от MediaBit Lithuania Скачать
3 | 0

28-11-2019 20:33  

Отключить всю рекламу на сайте

    Дорогой пользователь! Огромная просьба, поблагодарите релизера, оцените раздачу и оставьте свои комментарий, если Вы скачали Сердца и кости через торрент бесплатно! Внесите свою лепту в развитие PiratBit!
    Комментировать посты могут только пользователи прошедшие не сложную регистрацию
    Показать сообщения:    

    Сердца и кости через торрент
    Скачать бесплатно Сердца и кости
    Сердца и кости скачать торрент
    Сердца и кости смотреть онлайн
    Cкачать фильм Сердца и кости бесплатно
    Сердца и кости скачать торрент в хорошем качестве
    Сердца и кости смотреть онлайн бесплатно в хорошем качестве


    Вы не можете начинать темы
    Вы не можете отвечать на сообщения
    Вы не можете редактировать свои сообщения
    Вы не можете удалять свои сообщения
    Вы не можете голосовать в опросах
    Вы не можете прикреплять файлы к сообщениям
    Вы можете скачивать файлы