Ссылка на приватное зеркало нашего сайта всего за 1$. Внимание количество ограничено!!!

2 сезон

iTunes

1 сезон

1

2 сезон

2 сезон

iTunes

1 сезон

RePack

30

Ultimate

ВАЖНО

ИГРА 18+

pack

RePack

MK11
pack

Забери бонус

RePack

jed

!!Акция!!

Alien_Rage

RePack

fifa19

RePack

Assassins Creed: Odyssey

RePack

NEED FOR SPEED™ PAYBACK

4 сезон

9 сезон

Бесстыжие 9 сезон

Все сериалы

все сериалы на PB.wtf

RePack

FAR CRY 5
  

Артур и Мерлин: Рыцари Камелота / Arthur and Merlin: Knights of Camelot (Джиллз Алдерсон) [2020, боевик, приключения, история, BD Remux 1080p] DUB [iTunes] pb.wtf

Артур и Мерлин: Рыцари Камелота через торрент pb.wtf

Раздают: 2 [ 403 KB/s ]
Размер: 16.7 GB | Добавлен: 2 мес. 9 д. назад | Торрент скачан:58 раз
Скачать  

24-09-2020 18:55 Артур и Мерлин: Рыцари Камелота Скачать торрент  

Артур и Мерлин: Рыцари Камелота | Arthur and Merlin: Knights of Camelot
Год выпуска: 2020
Страна: Великобритания
Выпущено: Dagger Films, Picture Perfect
Жанр: боевик, приключения, история
Продолжительность: 01:30:51
Перевод: Дублированное | iTunes
Субтитры: отсутствуют

Режиссер: Джиллз Алдерсон

rating

В ролях: Ричард Шорт, Джоэль Филлимор, Стелла Стокер, Ричард Брэйк, Оливия Бернстоун, Эмили Хэй, Джо Иган, Дженнифер Мэттер, Ронан Саммерс, Стефан Боэм

Описание: Измученный войной Король Артур возвращается в Камелот после десятилетий борьбы с Римской империей. Но в его отсутствие его незаконнорожденный сын Мордред объявил себя королём и стал притязать на королеву Гвиневеру. Артур вместе с верными рыцарями Круглого стола вновь должен сражаться, чтобы вернуть свою корону. Но придет ли на помощь Мерлин? И как далеко может зайти король ради спасения чести своей королевы?

Качество: BD Remux 1080p
Формат: MKV

Видео: MPEG-4 AVC, 1920x1080, 24.0 Mbit/s, 23.976 fps
Аудио #01: 48 kHz, AC3, 5.1, 384 Kbps | iTunes | RUS |
Аудио #02: 48 kHz, DTS-HD MA, 5.1, 1942 Kbps | Оригинал | ENG |
скриншот  скриншот  скриншот  скриншот  скриншот  

Общее
Уникальный идентификатор : 176277143491090888116038080762338016935 (0x849DBE2FBF1A8424320C9D0BCE3EFEA7)
Полное имя : C:\Arthur.and.Merlin.Knights.of.Camelot.2020.BDREMUX.1080p.seleZen.mkv
Формат : Matroska
Версия формата : Version 4
Размер файла : 16,7 Гбайт
Продолжительность : 1 ч. 30 м.
Режим общего битрейта : Переменный
Общий поток : 26,3 Мбит/сек
Название фильма : Arthur & Merlin: Knights of Camelot 2020 from селезень
Дата кодирования : UTC 2020-09-24 17:27:21
Программа кодирования : mkvmerge v40.0.0 ('Old Town Road + Pony') 64-bit
Библиотека кодирования : libebml v1.3.9 + libmatroska v1.5.2

Видео
Идентификатор : 1
Формат : AVC
Формат/Информация : Advanced Video Codec
Профиль формата : High@L4.1
Настройки формата : CABAC / 4 Ref Frames
Параметр CABAC формата : Да
Параметр RefFrames формата : 4 кадра
Идентификатор кодека : V_MPEG4/ISO/AVC
Продолжительность : 1 ч. 30 м.
Вид битрейта : Переменный
Битрейт : 24,0 Мбит/сек
Максимальный битрейт : 35,0 Мбит/сек
Ширина : 1920 пикселей
Высота : 1080 пикселей
Соотношение сторон : 16:9
Режим частоты кадров : Постоянный
Частота кадров : 23,976 (24000/1001) кадра/сек
Стандарт вещания : Component
Цветовое пространство : YUV
Субдискретизация насыщенности : 4:2:0
Битовая глубина : 8 бит
Тип развёртки : Прогрессивная
Бит/(Пиксели*Кадры) : 0.483
Размер потока : 15,2 Гбайт (91%)
Библиотека кодирования : x264 core 148
Настройки программы : cabac=1 / ref=4 / deblock=1:0:0 / analyse=0x3:0x113 / me=hex / subme=7 / psy=1 / psy_rd=1.00:0.00 / mixed_ref=1 / me_range=16 / chroma_me=1 / trellis=1 / 8x8dct=1 / cqm=1 / deadzone=21,11 / fast_pskip=1 / chroma_qp_offset=-2 / threads=24 / lookahead_threads=4 / sliced_threads=0 / slices=4 / nr=0 / decimate=1 / interlaced=0 / minigop=1 / stitchable=1 / constrained_intra=0 / bframes=2 / b_pyramid=0 / b_adapt=1 / b_bias=0 / direct=1 / weightb=1 / open_gop=1 / weightp=1 / keyint=24 / keyint_min=1 / scenecut=40 / intra_refresh=0 / rc_lookahead=24 / rc=2pass / mbtree=1 / bitrate=24000 / ratetol=1.0 / qcomp=0.60 / qpmin=3 / qpmax=69 / qpstep=4 / cplxblur=20.0 / qblur=0.5 / vbv_maxrate=35000 / vbv_bufsize=30000 / nal_hrd=vbr / filler=0 / ip_ratio=1.40 / aq=1:1.00
Язык : English
Default : Да
Forced : Нет
Цветовой диапазон : Limited
Основные цвета : BT.709
Характеристики трансфера : BT.709
Коэффициенты матрицы : BT.709

Аудио #1
Идентификатор : 2
Формат : AC-3
Формат/Информация : Audio Coding 3
Коммерческое название : Dolby Digital
Идентификатор кодека : A_AC3
Продолжительность : 1 ч. 30 м.
Вид битрейта : Постоянный
Битрейт : 384 Кбит/сек
Каналы : 6 каналов
ChannelLayout : L R C LFE Ls Rs
Частота : 48,0 КГц
Частота кадров : 31,250 кадров/сек (1536 SPF)
Битовая глубина : 16 бит
Метод сжатия : С потерями
Размер потока : 250 Мбайт (1%)
Заголовок : iTunes
Язык : Russian
ServiceKind/String : Complete Main
Default : Да
Forced : Да

Аудио #2
Идентификатор : 3
Формат : DTS XLL
Формат/Информация : Digital Theater Systems
Коммерческое название : DTS-HD Master Audio
Идентификатор кодека : A_DTS
Продолжительность : 1 ч. 30 м.
Вид битрейта : Переменный
Битрейт : 1942 Кбит/сек
Каналы : 6 каналов
ChannelLayout : C L R Ls Rs LFE
Частота : 48,0 КГц
Частота кадров : 93,750 кадра/сек (512 SPF)
Битовая глубина : 16 бит
Метод сжатия : Без потерь
Размер потока : 1,23 Гбайт (7%)
Заголовок : Original
Язык : English
Default : Нет
Forced : Нет

Меню
00:00:00.000 : :Kapitel 01
00:10:03.686 : :Kapitel 02
00:21:55.063 : :Kapitel 03
00:32:49.550 : :Kapitel 04
00:44:21.909 : :Kapitel 05
00:55:33.163 : :Kapitel 06
01:06:24.772 : :Kapitel 07
01:12:42.358 : :Kapitel 08

pb.wtf



Скачать Артур и Мерлин: Рыцари Камелота через торрент http://c.radikal.ru/c22/2008/77/bf57c577e507.jpg Скачать фильм Артур и Мерлин: Рыцари Камелота через торрент бесплантно в хорошем качестве Описание: Измученный войной Король Артур возвращается в Камелот после десятилетий борьбы с Римской империей. Но в его отсутствие его ... 10 10 5
Торрент: Зарегистрирован [2020-09-24 18:55] · скачан: 58 раз
Статус: √ проверено
Размер: 16.7 GB
Как cкачать? Как скачать Артур и Мерлин: Рыцари Камелота через торрент | qTorrent

% Раздел Тема Автор DL S | L
Фильмы [HD 720p, 1080p] (Хороший звук DUB, MVO) [ 3.91 GB ] Артур и Мерлин: Рыцари Ката / Arthur and Merlin: Knights of Camelot [2020 история BDRip 720p] bober100 Скачать
2 | 0
Фильмы 2019-2020 [DVDrip, WEB-DLRip, HDrip] (DUB, MVO) [ 1.46 GB ] Артур и Мерлин: Рыцари Ката / Arthur and Merlin: Knights of Camelot [2020 история BDRip] bober100 Скачать
2 | 0
Фильмы 2019-2020 [DVDrip, WEB-DLRip, HDrip] (DUB, MVO) [ 751 MB ] Артур и Мерлин: Рыцари Ката / Arthur and Merlin: Knights of Camelot [2020 история HDRip-AVC] от MediaBit Lithuania Скачать
1 | 0
Фильмы [HD 720p, 1080p] (Хороший звук DUB, MVO) [ 7.34 GB ] Артур и Мерлин: Рыцари Ката / Arthur and Merlin: Knights of Camelot [2020 история BDRip 1080p] bober100 Скачать
4 | 0
Фильмы (WEB-DL 720p, 1080p) [ 4.85 GB ] Артур и Мерлин: Рыцари Ката / Arthur and Merlin: Knights of Camelot [2020 история WEB-DL 1080p] [AMZN Version] bober100 Скачать
3 | 0
Фильмы 2019-2020 [DVDrip, WEB-DLRip, HDrip] (DUB, MVO) [ 745 MB ] Артур и Мерлин: Рыцари Ката / Arthur and Merlin: Knights of Camelot [2020 история HDRip] bober100 Скачать
1 | 0
Фильмы (WEB-DL 720p, 1080p) [ 3.01 GB ] Артур и Мерлин: Рыцари Ката / Arthur and Merlin: Knights of Camelot [2020 история WEB-DL 1080p] bober100 Скачать
1 | 0

28-11-2019 20:33  

Отключить всю рекламу на сайте

    Дорогой пользователь! Огромная просьба, поблагодарите релизера, оцените раздачу и оставьте свои комментарий, если Вы скачали Артур и Мерлин: Рыцари Камелота через торрент бесплатно! Внесите свою лепту в развитие PiratBit!
    Комментировать посты могут только пользователи прошедшие не сложную регистрацию
    Показать сообщения:    

    Артур и Мерлин: Рыцари Камелота через торрент
    Скачать бесплатно Артур и Мерлин: Рыцари Камелота
    Артур и Мерлин: Рыцари Камелота скачать торрент
    Артур и Мерлин: Рыцари Камелота смотреть онлайн
    Cкачать фильм Артур и Мерлин: Рыцари Камелота бесплатно
    Артур и Мерлин: Рыцари Камелота скачать торрент в хорошем качестве
    Артур и Мерлин: Рыцари Камелота смотреть онлайн бесплатно в хорошем качестве


    Вы не можете начинать темы
    Вы не можете отвечать на сообщения
    Вы не можете редактировать свои сообщения
    Вы не можете удалять свои сообщения
    Вы не можете голосовать в опросах
    Вы не можете прикреплять файлы к сообщениям
    Вы можете скачивать файлы