Ссылка на приватное зеркало нашего сайта всего за 1$. Внимание количество ограничено!!!

2 сезон

iTunes

1 сезон

1

iTunes

iTunes

iTunes

1 сезон

RePack

30

ИГРА 18+

pack

ВАЖНО

!!Акция!!

Alien_RageХит недели

RePack

MK11
pack

Забери бонус

RePack

jed

!!Акция!!

Alien_Rage

RePack

fifa19

RePack

Assassins Creed: Odyssey

RePack

NEED FOR SPEED™ PAYBACK

4 сезон

9 сезон

Бесстыжие 9 сезон

Все сериалы

все сериалы на PB.wtf

RePack

FAR CRY 5
  

Марионетка / Marionette (Элберт ван Стриен) [2020, Триллер, детектив, WEB-DL 1080p] DUB [iTunes] pb.wtf

Марионетка через торрент pb.wtf

Раздают: 7 [ 0 KB/s ]
Размер: 4 GB | Добавлен: 26 д. назад | Торрент скачан:192 раза
Скачать  

25-09-2020 03:36 Марионетка Скачать торрент  

Марионетка | Marionette
Год выпуска: 2020
Страна: Нидерланды, Люксембург, Великобритания
Студия: Accento Films, Black Camel Pictures, BosBros
Жанр: Триллер, детектив
Продолжительность: 01:47:47
Перевод: Дублированное | iTunes
Субтитры: Русские (Full)

Режиссер: Элберт ван Стриен

rating

В ролях: Питер Муллан, Текла Рютен, Ребекка Фронт, Билл Патерсон, Иман Эллиотт, Сэм Хэзелдайн, Перл Чанда, Доун Стил, Йохм тен Хааф, Элайджа Вульф

Описание: Мэриан уже много лет успешно работает детским психотерапевтом, но знакомство с Мэнни, замкнутым 10-летним мальчиком, заставляет ее усомниться в своей компетентности, а после – в том, что реально. Все, что рисует ребенок, вскоре случается. Но это отнюдь не милые детские фантазии... А мрачные, леденящие душу сюжеты, герои которых отныне – марионетки в неведомой никому игре.

Качество: WEB-DL 1080p
Формат: MKV

Видео: MPEG-4 AVC, 1920x802, 4548 Kbit/s, 23.976 fps
Аудио#1: 48 kHz, AC3, 5.1, 384 Kbps | iTunes | RUS |
Аудио#2: 48 kHz, AC3, 5.1, 384 Kbps | Оригинал | ENG |
скриншот  скриншот  скриншот  скриншот  скриншот  

General
Unique ID : 299480705686659588303922007237834985220 (0xE14DE2C958E813AAB6F0D9467D5A4F04)
Complete name : D:\Video111\Marionette.2020.WEB-DL.1080p.seleZen.mkv
Format : Matroska
Format version : Version 4
File size : 4.00 GiB
Duration : 1 h 47 min
Overall bit rate : 5 319 kb/s
Movie name : Marionette 2020 from селезень
Encoded date : UTC 2020-09-24 22:55:11
Writing application : mkvmerge v40.0.0 ('Old Town Road + Pony') 64-bit
Writing library : libebml v1.3.9 + libmatroska v1.5.2

Video
ID : 1
Format : AVC
Format/Info : Advanced Video Codec
Format profile : High@L4
Format settings : CABAC / 5 Ref Frames
Format settings, CABAC : Yes
Format settings, Reference : 5 frames
Codec ID : V_MPEG4/ISO/AVC
Duration : 1 h 47 min
Bit rate : 4 548 kb/s
Width : 1 920 pixels
Height : 802 pixels
Display aspect ratio : 2.40:1
Frame rate mode : Constant
Frame rate : 25.000 FPS
Color space : YUV
Chroma subsampling : 4:2:0
Bit depth : 8 bits
Scan type : Progressive
Bits/(Pixel*Frame) : 0.118
Stream size : 3.42 GiB (86%)
Language : English
Default : Yes
Forced : No
Color range : Limited
Color primaries : BT.709
Transfer characteristics : BT.709
Matrix coefficients : BT.709

Audio #1
ID : 2
Format : AC-3
Format/Info : Audio Coding 3
Commercial name : Dolby Digital
Codec ID : A_AC3
Duration : 1 h 47 min
Bit rate mode : Constant
Bit rate : 384 kb/s
Channel(s) : 6 channels
Channel layout : L R C LFE Ls Rs
Sampling rate : 48.0 kHz
Frame rate : 31.250 FPS (1536 SPF)
Compression mode : Lossy
Stream size : 296 MiB (7%)
Title : iTunes
Language : Russian
Service kind : Complete Main
Default : Yes
Forced : Yes

Audio #2
ID : 3
Format : AC-3
Format/Info : Audio Coding 3
Commercial name : Dolby Digital
Codec ID : A_AC3
Duration : 1 h 47 min
Bit rate mode : Constant
Bit rate : 384 kb/s
Channel(s) : 6 channels
Channel layout : L R C LFE Ls Rs
Sampling rate : 48.0 kHz
Frame rate : 31.250 FPS (1536 SPF)
Compression mode : Lossy
Stream size : 296 MiB (7%)
Title : Original
Language : English
Service kind : Complete Main
Default : No
Forced : No

Text
ID : 4
Format : UTF-8
Codec ID : S_TEXT/UTF8
Codec ID/Info : UTF-8 Plain Text
Duration : 1 h 41 min
Bit rate : 75 b/s
Count of elements : 1296
Stream size : 56.2 KiB (0%)
Title : Full
Language : Russian
Default : No
Forced : No

Menu
00:00:00.000 : en:Глава 1
00:09:03.520 : en:Глава 2
00:17:07.960 : en:Глава 3
00:25:30.120 : en:Глава 4
00:34:23.920 : en:Глава 5
00:43:09.160 : en:Глава 6
00:51:46.680 : en:Глава 7
01:00:03.600 : en:Глава 8
01:09:50.160 : en:Глава 9
01:18:37.160 : en:Глава 10
01:27:19.240 : en:Глава 11
01:35:44.720 : en:Глава 12

pb.wtf



Скачать Марионетка через торрент https://i112.fastpic.ru/big/2020/0925/72/9c19f85efdee81cd5c8a49d3bcb2fd72.jpg Скачать фильм Марионетка через торрент бесплантно в хорошем качестве Описание: Мэриан уже много лет успешно работает детским психотерапевтом, но знакомство с Мэнни, замкнутым 10-летним мальчиком, заставляет ... 10 10 6
Торрент: Зарегистрирован [2020-09-25 03:36] · скачан: 192 раз
Статус: √ проверено
Размер: 4 GB
Как cкачать? Как скачать Марионетка через торрент | qTorrent

% Раздел Тема Автор DL S | L
Фильмы 2019-2020 [DVDrip, WEB-DLRip, HDrip] (DUB, MVO) [ 746 MB ] Марионетка / Marionette [2020 WEB-DLRip] bober100 Скачать
14 | 0
Фильмы 2019-2020 [DVDrip, WEB-DLRip, HDrip] (DUB, MVO) [ 1.45 GB ] Марионетка / Marionette [2020 WEB-DLRip-AVC] от MediaBit Lithuania Скачать
3 | 0
Фильмы 2019-2020 [DVDrip, WEB-DLRip, HDrip] (DUB, MVO) [ 1.46 GB ] Марионетка / Marionette [2020 WEB-DLRip] bober100 Скачать
12 | 0
Азиатские фильмы [ 1.36 GB ] Марионетка / Marionette [2013 HDRip]DVO Ворон Скачать
1 | 0

28-11-2019 20:33  

Отключить всю рекламу на сайте

    Дорогой пользователь! Огромная просьба, поблагодарите релизера, оцените раздачу и оставьте свои комментарий, если Вы скачали Марионетка через торрент бесплатно! Внесите свою лепту в развитие PiratBit!
    Комментировать посты могут только пользователи прошедшие не сложную регистрацию
    Показать сообщения:    

    Марионетка через торрент
    Скачать бесплатно Марионетка
    Марионетка скачать торрент
    Марионетка смотреть онлайн
    Cкачать фильм Марионетка бесплатно
    Марионетка скачать торрент в хорошем качестве
    Марионетка смотреть онлайн бесплатно в хорошем качестве


    Вы не можете начинать темы
    Вы не можете отвечать на сообщения
    Вы не можете редактировать свои сообщения
    Вы не можете удалять свои сообщения
    Вы не можете голосовать в опросах
    Вы не можете прикреплять файлы к сообщениям
    Вы можете скачивать файлы