Ссылка на приватное зеркало нашего сайта всего за 1$. Внимание количество ограничено!!!

2 сезон

iTunes

1 сезон

1

iTunes

iTunes

iTunes

1 сезон

RePack

30

ИГРА 18+

pack

ВАЖНО

!!Акция!!

Alien_RageХит недели

RePack

MK11
pack

Забери бонус

RePack

jed

!!Акция!!

Alien_Rage

RePack

fifa19

RePack

Assassins Creed: Odyssey

RePack

NEED FOR SPEED™ PAYBACK

4 сезон

9 сезон

Бесстыжие 9 сезон

Все сериалы

все сериалы на PB.wtf

RePack

FAR CRY 5
  

Аватар короля 2 / Quanzhi Gaoshou 2 / Сезон 2 / Серии 1-5 из 12 (Сюн Кэ) [2020 г., Приключения, фентези, экшн, HDTV 1080p] [MVO] (Анистар) pb.wtf

Аватар короля 2 через торрент pb.wtf

Раздают: 1 [ 0 KB/s ]
Размер: 2.12 GB | Добавлен: 6 д. назад | Торрент скачан:0 раз
Скачать  

25-09-2020 18:56 Аватар короля 2 Скачать торрент  

Аватар короля 2 / Quanzhi Gaoshou 2

Год выпуска: 2020
Страна: Китай
Жанр: Приключения, фентези, экшн
Продолжительность: ~00:26:00
Перевод: Любительский (многоголосый)
Субтитры: Отсутствуют

Режиссер: Сюн Кэ

rating

В ролях: Озвучивали Xelenum & Shoker & Sati Akura & Veda

Описание: В MMORPG «Слава» Е Сю известен как эксперт экстра-класса и топовый игрок, но из-за ряда обстоятельств его выгоняют из команды профи. Парень устраивается работать в интернет-кафе менеджером. А когда «Слава» запускает десятый сервер, он снова погружается в игровые пучины, вооружённый десятилетним опытом, воспоминаниями о былом и недоделанным самодельным оружием.

Доп. информация: без какой либо рекламы, звуковую затёр, диалоги не пострадали

Качество: HDTV 1080p
Формат: MP4
Видео: MPEG4 Video (H264) 1920x1080 40fps 2 194 Кбит/сек
Аудио#1: RUS AAC 44100Hz stereo 128 Кбит/сек
Релиз от: Анистар
скриншот   скриншот   скриншот  





Общее
Полное имя : D:\Раздачи\Quanzhi Gaoshou 2 Аватар короля 2\[AniStar.org] The King's Avatar S2 - 1.mp4
Формат : MPEG-4
Профиль формата : Base Media
Идентификатор кодека : isom (isom/mp42)
Размер файла : 463 Мбайт
Продолжительность : 26 м. 39 с.
Режим общего битрейта : Переменный
Общий поток : 2 427 Кбит/сек
Дата кодирования : UTC 2020-09-25 17:28:08
Дата пометки : UTC 2020-09-25 17:28:08
Программа кодирования : vlc 3.0.11 stream output
Примечание : QuickTime 6.0 or greater

Видео
Идентификатор : 1
Формат : AVC
Формат/Информация : Advanced Video Codec
Профиль формата : High@L4.2
Настройки формата : CABAC / 4 Ref Frames
Параметр CABAC формата : Да
Параметр RefFrames формата : 4 кадра
Идентификатор кодека : avc1
Идентификатор кодека/Информация : Advanced Video Coding
Продолжительность : 26 м. 39 с.
Продолжительность оригинала : 26 м. 39 с.
Битрейт : 2 194 Кбит/сек
Ширина : 1 920 пикселей
Высота : 1 080 пикселей
Соотношение сторон : 16:9
Режим частоты кадров : Постоянный
Частота кадров : 40,000 кадров/сек
Цветовое пространство : YUV
Субдискретизация насыщенности : 4:2:0
Битовая глубина : 8 бит
Тип развёртки : Прогрессивная
Бит/(Пиксели*Кадры) : 0.026
Размер потока : 418 Мбайт (90%)
Размер потока оригинала : 437 Мбайт (94%)
Библиотека кодирования : x264 core 146
Настройки программы : cabac=1 / ref=3 / deblock=1:0:0 / analyse=0x3:0x113 / me=hex / subme=7 / psy=1 / psy_rd=1.00:0.00 / mixed_ref=1 / me_range=16 / chroma_me=1 / trellis=1 / 8x8dct=1 / cqm=0 / deadzone=21,11 / fast_pskip=1 / chroma_qp_offset=-2 / threads=36 / lookahead_threads=6 / sliced_threads=0 / nr=0 / decimate=1 / interlaced=0 / bluray_compat=0 / constrained_intra=0 / bframes=3 / b_pyramid=2 / b_adapt=1 / b_bias=0 / direct=1 / weightb=1 / open_gop=0 / weightp=2 / keyint=300 / keyint_min=30 / scenecut=40 / intra_refresh=0 / rc_lookahead=40 / rc=crf / mbtree=1 / crf=23.0 / qcomp=0.60 / qpmin=0 / qpmax=69 / qpstep=4 / ip_ratio=1.40 / aq=1:1.00
Язык : English
Дата кодирования : UTC 2020-09-25 17:28:08
Дата пометки : UTC 2020-09-25 17:28:08
mdhd_Duration : 1599829
Codec configuration box : avcC

Аудио
Идентификатор : 2
Формат : AAC LC
Формат/Информация : Advanced Audio Codec Low Complexity
Идентификатор кодека : mp4a-40-2
Продолжительность : 26 м. 39 с.
Продолжительность оригинала : 26 м. 39 с.
Вид битрейта : Переменный
Битрейт : 128 Кбит/сек
Каналы : 2 канала
Channel layout : L R
Частота : 44,1 КГц
Частота кадров : 43,066 кадра/сек (1024 SPF)
Метод сжатия : С потерями
Размер потока : 24,5 Мбайт (5%)
Размер потока оригинала : 24,5 Мбайт (5%)
Язык : English
Дата кодирования : UTC 2020-09-25 17:28:08
Дата пометки : UTC 2020-09-25 17:28:08
mdhd_Duration : 1599765

Внимание! Раздача ведётся путём добавления новых серий; при каждом добавлении создётся новый торрент. Чтобы начать докачку новой серии, пользователям необходимо сделать следующее:
  • Остановить скачивание,
  • Удалить старый торрент у себя из клиента (старые серии удалять не надо),
  • Скачать новый торрент и запустить его у себя в клиенте вместо старого, при этом указать клиенту путь в старую папку куда и должно происходить скачивание новых серий.
Ваш клиент при этом должен произвести хеширование (проверку) старой папки (если не производит сам - помогите ему сделать это), и будет докачивать только те серии которых у вас ещё нет. Старые серии при этом не удаляются, а продолжают раздаваться!

Eсли вы уже удалили старые серии, то предотвратить повторную закачку старых серий можно, отжав галочку в соответсвующих местах при запуске нового торрента. По возможности, желательно не удалять старые серии как можно дольше чтобы релизёр не столько продолжал раздавать старые серии, а смог сконцентрироваться на новых.
UPD 2: в след. месяц два достараиваю дом, по 12 часов на стройке, если серии не вышли к тому моменту как я добрался до компа, мониторить и ждать их сил нету, к след. вечеру постараюсь обновить.. как закончу, через пару мес. может буду мониторить как раньше
Раздачу постараюсь обновлять в течении 1-2 часов, как она вышла на анистаре(если не смогу, то напишу об этом в первом сообщения онгоинга),
именно многоголоска в онлайне, анистар к этому не имеет никакого отношения, моя личная инициатива, озвучка у них неплохая и быстрая,
но наличии "кучи" рекламы даже для VIPов в торенте меня сильно огорчает (а я был с ними с самого начала(если они уберут рекламу для ВИПов я прекращу их пиратить)),
если раздачи будут популярны или по адекватным просьбам(какие нибудь девочки волшебницы даже не рассматриваются, я всё думал насчёт добавлять ли научный индекс- реилган,
но потом он вроде уже закончился..(нетфликсы все я тоже буду добавлять)) добавятся еще, интернет у меня не очень быстрый, 30 мегабит.
В любом случае качество картинки лучше чем они раздают у себя на трекере, я пока ковырялся с этой темой, сравнивал, замерял, и офигел вот от чего-
они любой видосик с плеера для ВИПов специально пережимают в худшее качестве, какой бы он изначально не был,
даже когда он и так в 720 в плеере для ВИП, они всей ровно пережимают и делают МЫЛО для торента, прям злорадство какое то)
ну еще и добавляют 4 рекламы , не знаю как у остальных а у меня аллергия на онлайн
pb.wtf



Скачать Аватар короля 2 через торрент https://funkyimg.com/i/37AA7.jpg Скачать фильм Аватар короля 2 через торрент бесплантно в хорошем качестве Описание: В MMORPG «Слава» Е Сю известен как эксперт экстра-класса и топовый игрок, но из-за ряда обстоятельств его выгоняют из команды ... 10 10 1
× Info от релизера! добавил 5 серию
Info! Золотая раздача, скачанное не засчитывается.
Торрент: Зарегистрирован [2020-10-16 18:45] · скачан: 0 раз
Статус: √ проверено
Размер: 2.12 GB
Как cкачать? Как скачать Аватар короля 2 через торрент | qTorrent



Последний раз редактировалось: GuruBrain (2020-10-16 18:47), всего редактировалось 11 раз(а)

28-11-2019 20:33  

Отключить всю рекламу на сайте

25-09-2020 18:57 Аватар короля 2 Скачать торрент  

...pb.wtf



11-10-2020 13:06 Аватар короля 2 Скачать торрент  

Топик был перенесен из форума Оформление раздач (Наши, Зарубежные Сериалы) в форум Аниме [HD 720p, 1080p]


killermax2013pb.wtf



17-10-2020 00:00 Аватар короля 2 Скачать торрент  

30 мегабит. 0 за часpb.wtf



    Дорогой пользователь! Огромная просьба, поблагодарите релизера, оцените раздачу и оставьте свои комментарий, если Вы скачали Аватар короля 2 через торрент бесплатно! Внесите свою лепту в развитие PiratBit!
    Комментировать посты могут только пользователи прошедшие не сложную регистрацию
    Показать сообщения:    

    Аватар короля 2 через торрент
    Скачать бесплатно Аватар короля 2
    Аватар короля 2 скачать торрент
    Аватар короля 2 смотреть онлайн
    Cкачать фильм Аватар короля 2 бесплатно
    Аватар короля 2 скачать торрент в хорошем качестве
    Аватар короля 2 смотреть онлайн бесплатно в хорошем качестве


    Вы не можете начинать темы
    Вы не можете отвечать на сообщения
    Вы не можете редактировать свои сообщения
    Вы не можете удалять свои сообщения
    Вы не можете голосовать в опросах
    Вы не можете прикреплять файлы к сообщениям
    Вы можете скачивать файлы