Ссылка на приватное зеркало нашего сайта всего за 1$. Внимание количество ограничено!!!

2 сезон

iTunes

1 сезон

1

2 сезон

2 сезон

iTunes

1 сезон

RePack

30

Новинка

ВАЖНО

ИГРА 18+

pack

RePack

MK11
pack

Забери бонус

RePack

jed

!!Акция!!

Alien_Rage

RePack

fifa19

RePack

Assassins Creed: Odyssey

RePack

NEED FOR SPEED™ PAYBACK

4 сезон

9 сезон

Бесстыжие 9 сезон

Все сериалы

все сериалы на PB.wtf

RePack

FAR CRY 5
  

Энола Холмс / Enola Holmes (Гарри Брэдбир) [2020, Драма, криминал, детектив, WEB-DL 1080p] 3xMVO (rus, ukr) pb.wtf

Энола Холмс через торрент pb.wtf

Раздают: 7 [ 0 KB/s ]
Размер: 7.2 GB | Добавлен: 1 мес. 29 д. назад | Торрент скачан:342 раза
Скачать  

26-09-2020 11:04 Энола Холмс Скачать торрент  

Энола Холмс | Enola Holmes
Год выпуска: 2020
Страна: Великобритания
Студия: EH Productions, Legendary Pictures, PCMA Productions, Warner Bros.
Жанр: Драма, криминал, детектив
Продолжительность: 02:03:54
Перевод(ы):
#1: Профессиональный многоголосый | HDRezka Studio
#2: Профессиональный многоголосый | NewComers
#3: Любительский многоголосый | Flarrow Films
Субтитры: Русские (2 x forced, full), украинские (forced), английские, французские, испанские

Режиссер: Гарри Брэдбир

rating

В ролях: Милли Бобби Браун, Генри Кавилл, Сэм Клафлин, Хелена Бонем Картер, Фиона Шоу, Адиль Ахтар, Фрэнсис де ла Тур, Луис Патридж, Сьюзан Уокома, Берн Горман

Описание: Англия, 1884 год - мир на грани перемен. Утром, в свой 16-й день рождения, Энола Холмс просыпается и обнаруживает, что ее мать исчезла, оставив после себя странный ассортимент подарков, но без видимой подсказки относительно того, куда она ушла и почему. После беззаботного детства Энола внезапно оказывается под опекой своих братьев Шерлока и Майкрофта, которые отправляют ее в школу для «настоящих» девушек. Отказываясь следовать их желаниям, Энола сбегает на поиски своей матери в Лондон. Экранизация первой книги из серии «Тайны Энолы Холмс» писательницы Ненси Спрингер.

Качество: WEB-DL 1080p
Формат: MKV

Видео: MPEG-4 AVC, 1920x1080, 5360 Kbit/s, 24.000 fps
Аудио #01: 48 kHz, AC3, 5.1, 448 Kbps | HDRezka Studio | RUS |
Аудио #02: 48 kHz, AC3, 5.1, 448 Kbps | NewComers | RUS |
Аудио #03: 48 kHz, AC3, 2.0, 320 Kbps | Flarrow Films | RUS |
Аудио #04: 48 kHz, AC3, 5.1, 384 Kbps | HDRezka Studio | UKR |
Аудио #05: 48 kHz, E-AC3+Atmos, 5.1, 768 Kbps | Оригинал | ENG |
Аудио #06: 48 kHz, E-AC3, 5.1, 640 Kbps | Оригинал | FRE |
скриншот  скриншот  скриншот  скриншот  скриншот  

General
Unique ID: 134922258299035407191404260605456896826 (0x658114ED0F51EE0F9D82849847ED533A)
Complete name: D:Video1111Enola.Holmes.2020.WEB-DL.1080p.seleZen.mkv
Format: Matroska
Format version: Version 4
File size: 7.20 GiB
Duration: 2 h 3 min
Overall bit rate mode: Variable
Overall bit rate: 8 318 kb/s
Movie name: Enola Holmes 2020 from селезень
Encoded date: UTC 2020-09-26 08:13:29
Writing application: mkvmerge v40.0.0 ('Old Town Road + Pony') 64-bit
Writing library: libebml v1.3.9 + libmatroska v1.5.2
Cover: Yes
Attachments: cover.jpg

Video
ID: 1
Format: AVC
Format/Info: Advanced Video Codec
Format profile: Main@L4
Format settings: CABAC / 3 Ref Frames
Format settings, CABAC: Yes
Format settings, Reference: 3 frames
Codec ID: V_MPEG4/ISO/AVC
Duration: 2 h 3 min
Bit rate mode: Variable
Bit rate: 5 360 kb/s
Maximum bit rate: 8 040 kb/s
Width: 1 920 pixels
Height: 1 080 pixels
Display aspect ratio: 16:9
Frame rate mode: Constant
Frame rate: 24.000 FPS
Color space: YUV
Chroma subsampling: 4:2:0
Bit depth: 8 bits
Scan type: Progressive
Bits/(Pixel*Frame): 0.108
Stream size: 4.60 GiB (64%)
Writing library: x264 core 148 r2721 6d200cf
Encoding settings: cabac=1 / ref=3 / deblock=1:0:0 / analyse=0x1:0x111 / me=umh / subme=10 / psy=1 / psy_rd=1.00:0.00 / mixed_ref=1 / me_range=24 / chroma_me=1 / trellis=2 / 8x8dct=0 / cqm=0 / deadzone=21, 11 / fast_pskip=1 / chroma_qp_offset=-2 / threads=6 / lookahead_threads=1 / sliced_threads=0 / nr=0 / decimate=1 / interlaced=0 / bluray_compat=0 / stitchable=1 / constrained_intra=0 / bframes=2 / b_pyramid=0 / b_adapt=2 / b_bias=0 / direct=3 / weightb=1 / open_gop=0 / weightp=2 / keyint=250 / keyint_min=24 / scenecut=0 / intra_refresh=0 / rc_lookahead=48 / rc=2pass / mbtree=1 / bitrate=5360 / ratetol=1.0 / qcomp=0.50 / qpmin=6 / qpmax=51 / qpstep=4 / cplxblur=20.0 / qblur=0.5 / vbv_maxrate=8040 / vbv_bufsize=10720 / nal_hrd=vbr / filler=0 / ip_ratio=1.40 / aq=1:1.00
Language: English
Default: Yes
Forced: No

Audio #1
ID: 2
Format: AC-3
Format/Info: Audio Coding 3
Commercial name: Dolby Digital
Codec ID: A_AC3
Duration: 2 h 3 min
Bit rate mode: Constant
Bit rate: 448 kb/s
Channel(s): 6 channels
Channel layout: L R C LFE Ls Rs
Sampling rate: 48.0 kHz
Frame rate: 31.250 FPS (1536 SPF)
Compression mode: Lossy
Stream size: 397 MiB (5%)
Title: MVO [HDRezka Studio]
Language: Russian
Service kind: Complete Main
Default: Yes
Forced: Yes

Audio #2
ID: 3
Format: AC-3
Format/Info: Audio Coding 3
Commercial name: Dolby Digital
Codec ID: A_AC3
Duration: 2 h 3 min
Bit rate mode: Constant
Bit rate: 448 kb/s
Channel(s): 6 channels
Channel layout: L R C LFE Ls Rs
Sampling rate: 48.0 kHz
Frame rate: 31.250 FPS (1536 SPF)
Compression mode: Lossy
Stream size: 397 MiB (5%)
Title: MVO [NewComers]
Language: Russian
Service kind: Complete Main
Default: No
Forced: No

Audio #3
ID: 4
Format: AC-3
Format/Info: Audio Coding 3
Commercial name: Dolby Digital
Codec ID: A_AC3
Duration: 2 h 3 min
Bit rate mode: Constant
Bit rate: 320 kb/s
Channel(s): 2 channels
Channel layout: L R
Sampling rate: 48.0 kHz
Frame rate: 31.250 FPS (1536 SPF)
Compression mode: Lossy
Stream size: 284 MiB (4%)
Title: MVO [Flarrow Films]
Language: Russian
Service kind: Complete Main
Default: No
Forced: No

Audio #4
ID: 5
Format: AC-3
Format/Info: Audio Coding 3
Commercial name: Dolby Digital
Codec ID: A_AC3
Duration: 2 h 2 min
Bit rate mode: Constant
Bit rate: 384 kb/s
Channel(s): 6 channels
Channel layout: L R C LFE Ls Rs
Sampling rate: 48.0 kHz
Frame rate: 31.250 FPS (1536 SPF)
Compression mode: Lossy
Stream size: 337 MiB (5%)
Title: MVO [HDRezka Studio]
Language: Ukrainian
Service kind: Complete Main
Default: No
Forced: No

Audio #5
ID: 6
Format: E-AC-3 JOC
Format/Info: Enhanced AC-3 with Joint Object Coding
Commercial name: Dolby Digital Plus with Dolby Atmos
Codec ID: A_EAC3
Duration: 2 h 3 min
Bit rate mode: Constant
Bit rate: 768 kb/s
Channel(s): 6 channels
Channel layout: L R C LFE Ls Rs
Sampling rate: 48.0 kHz
Frame rate: 31.250 FPS (1536 SPF)
Compression mode: Lossy
Stream size: 681 MiB (9%)
Title: Original
Language: English
Service kind: Complete Main
Default: No
Forced: No
Complexity index: 16
Number of dynamic objects: 15
Bed channel count: 1 channel
Bed channel configuration: LFE

Audio #6
ID: 7
Format: E-AC-3
Format/Info: Enhanced AC-3
Commercial name: Dolby Digital Plus
Codec ID: A_EAC3
Duration: 2 h 3 min
Bit rate mode: Constant
Bit rate: 640 kb/s
Channel(s): 6 channels
Channel layout: L R C LFE Ls Rs
Sampling rate: 48.0 kHz
Frame rate: 31.250 FPS (1536 SPF)
Compression mode: Lossy
Stream size: 567 MiB (8%)
Title: French
Language: French
Service kind: Complete Main
Default: No
Forced: No

Text #1
ID: 8
Format: UTF-8
Codec ID: S_TEXT/UTF8
Codec ID/Info: UTF-8 Plain Text
Duration: 1 h 56 min
Bit rate: 2 b/s
Count of elements: 54
Stream size: 2.08 KiB (0%)
Title: Forced [For HDRezka Studio]
Language: Russian
Default: Yes
Forced: Yes

Text #2
ID: 9
Format: UTF-8
Codec ID: S_TEXT/UTF8
Codec ID/Info: UTF-8 Plain Text
Duration: 1 h 56 min
Bit rate: 2 b/s
Count of elements: 57
Stream size: 2.08 KiB (0%)
Title: Forced [For NewComers]
Language: Russian
Default: No
Forced: No

Text #3
ID: 10
Format: UTF-8
Codec ID: S_TEXT/UTF8
Codec ID/Info: UTF-8 Plain Text
Duration: 2 h 1 min
Bit rate: 76 b/s
Count of elements: 1520
Stream size: 68.6 KiB (0%)
Title: Russian [Full]
Language: Russian
Default: No
Forced: No

Text #4
ID: 11
Format: UTF-8
Codec ID: S_TEXT/UTF8
Codec ID/Info: UTF-8 Plain Text
Duration: 1 h 56 min
Bit rate: 2 b/s
Count of elements: 59
Stream size: 2.29 KiB (0%)
Title: Forced
Language: Ukrainian
Default: No
Forced: No

Text #5
ID: 12
Format: UTF-8
Codec ID: S_TEXT/UTF8
Codec ID/Info: UTF-8 Plain Text
Duration: 1 h 56 min
Bit rate: 69 b/s
Count of elements: 2067
Stream size: 59.4 KiB (0%)
Title: English [SDH]
Language: English
Default: No
Forced: No

Text #6
ID: 13
Format: UTF-8
Codec ID: S_TEXT/UTF8
Codec ID/Info: UTF-8 Plain Text
Duration: 2 h 1 min
Bit rate: 49 b/s
Count of elements: 1578
Stream size: 44.0 KiB (0%)
Title: French
Language: French
Default: No
Forced: No

Text #7
ID: 14
Format: UTF-8
Codec ID: S_TEXT/UTF8
Codec ID/Info: UTF-8 Plain Text
Duration: 2 h 1 min
Bit rate: 48 b/s
Count of elements: 1511
Stream size: 43.6 KiB (0%)
Title: European Spanish
Language: Spanish
Default: No
Forced: No

pb.wtf



Скачать Энола Холмс через торрент https://i112.fastpic.ru/big/2020/0926/9c/1cab15624bb0449383c6ae358c90d29c.jpg Скачать фильм Энола Холмс через торрент бесплантно в хорошем качестве Описание: Англия, 1884 год - мир на грани перемен. Утром, в свой 16-й день рождения, Энола Холмс просыпается и обнаруживает, что ее мать ... 8 10 15
Торрент: Зарегистрирован [2020-09-26 11:04] · скачан: 342 раз
Статус: √ проверено
Размер: 7.2 GB
Как cкачать? Как скачать Энола Холмс через торрент | qTorrent

% Раздел Тема Автор DL S | L
Фильмы 2019-2020 [DVDrip, WEB-DLRip, HDrip] (DUB, MVO) [ 1.63 GB ] Энола Холмс / Enola Holmes [2020 WEB-DLRip-AVC] [MVO] [NewComers] от MediaBit Lithuania Скачать
8 | 0
Фильмы (WEB-DL 720p, 1080p) [ 3.95 GB ] Энола Холмс / Enola Holmes [2020 WEB-DL 720p] 3x[MVO] killermax2013 Скачать
4 | 0
Фильмы 2019-2020 [DVDrip, WEB-DLRip, HDrip] (DUB, MVO) [ 1.46 GB ] Энола Холмс / Enola Holmes [2020 WEB-DLRip] [MVO] killermax2013 Скачать
8 | 0

28-11-2019 20:33  

Отключить всю рекламу на сайте

26-09-2020 13:44 Энола Холмс Скачать торрент  

пойдет на разок.немного политика портит кино.-били,шмили,реформа конституции.свое уже все надоело,а тут еще и британское.pb.wtf



26-09-2020 13:53 Энола Холмс Скачать торрент  

Для подростков, хватило на полчаса просмотра.pb.wtf



27-09-2020 19:00 Энола Холмс Скачать торрент  

"У 16-летней Энолы Холмс исчезает мать. Она просит помощи у старших братьев Майкрофта и Шерлока, но они воспринимают исчезновение как нечто незначительное. Энола сбегает из дома в Лондон, где натыкается на инспектора Лестрейда и подключается к поискам пропавшего молодого виконта."

Артур Конан Дойл сейчас в гробу перевернулся ..pb.wtf



    Дорогой пользователь! Огромная просьба, поблагодарите релизера, оцените раздачу и оставьте свои комментарий, если Вы скачали Энола Холмс через торрент бесплатно! Внесите свою лепту в развитие PiratBit!
    Комментировать посты могут только пользователи прошедшие не сложную регистрацию
    Показать сообщения:    

    Энола Холмс через торрент
    Скачать бесплатно Энола Холмс
    Энола Холмс скачать торрент
    Энола Холмс смотреть онлайн
    Cкачать фильм Энола Холмс бесплатно
    Энола Холмс скачать торрент в хорошем качестве
    Энола Холмс смотреть онлайн бесплатно в хорошем качестве


    Вы не можете начинать темы
    Вы не можете отвечать на сообщения
    Вы не можете редактировать свои сообщения
    Вы не можете удалять свои сообщения
    Вы не можете голосовать в опросах
    Вы не можете прикреплять файлы к сообщениям
    Вы можете скачивать файлы