Ссылка на приватное зеркало нашего сайта всего за 1$. Внимание количество ограничено!!!

2 сезон

iTunes

1 сезон

1

iTunes

iTunes

iTunes

1 сезон

RePack

30

ИГРА 18+

pack

ВАЖНО

!!Акция!!

Alien_RageХит недели

RePack

MK11
pack

Забери бонус

RePack

jed

!!Акция!!

Alien_Rage

RePack

fifa19

RePack

Assassins Creed: Odyssey

RePack

NEED FOR SPEED™ PAYBACK

4 сезон

9 сезон

Бесстыжие 9 сезон

Все сериалы

все сериалы на PB.wtf

RePack

FAR CRY 5
  

Дети ветра / Серии: 1-4 из 4 (Максим Демченко) [2020, Детектив, мелодрама, WEB-DL 1080p] pb.wtf

Дети ветра через торрент pb.wtf

Размер: 6.61 GB | Добавлен: 27 д. назад | Торрент скачан:23 раза
Скачать  

27-09-2020 05:11 Дети ветра Скачать торрент  

Дети ветра
Год выпуска: 2020
Страна: Россия
Выпущено: Россия, Кинокомпания "Гамма"
Жанр: Детектив, мелодрама
Продолжительность: ~ 00:44:00
Перевод: Не требуется
Субтитры: отсутствуют

Режиссер: Максим Демченко



В ролях: Александр Носик, Анна Здор, Дмитрий Мазуров, Сергей Гамов, Валентина Панина, Виталия Корниенко, Павел Савинков

Описание: Внешние атрибуты жизни Натальи вполне соответствуют статусу счастливого человека. Любимый муж Павел и дочь Вика - что еще нужно для счастья. Но Павел не может жить без рискованных авантюр, которые приводят счастливую жизнь к опасной черте. Наталья пытается отсрочить выплату очередного долга Павла и отправляется к кредитору - бывшему однокурснику мужа Портнову.

Качество: WEB-DL 1080p
Формат: MKV

Видео: MPEG-4 AVC, ~ 5000 Кбит/с, 1920x1080, 25 кадр/с
Аудио: 48.0 kHz, AC3 Dolby Digital, 2/0 (L,R) ch, ~ 192 kbps
скриншот  скриншот  скриншот  скриншот  

Общее
Уникальный идентификатор : 211016885327157741753035763665857026417 (0x9EC05FB2D14E56A79A0834316E8A1971)
Полное имя : C:\Deti.vetra.2020.WEB-DL.(1080p).ExKinoRay\Deti.vetra.e01.2020.WEB-DL.(1080p).ExKinoRay.mkv
Формат : Matroska
Версия формата : Version 2
Размер файла : 1,66 Гбайт
Продолжительность : 44 м. 49 с.
Общий поток : 5310 Кбит/сек
Дата кодирования : UTC 2020-09-26 22:24:17
Программа кодирования : mkvmerge v5.8.0 ('No Sleep / Pillow') built on Sep 2 2012 15:37:04
Библиотека кодирования : libebml v1.2.3 + libmatroska v1.3.0

Видео
Идентификатор : 1
Формат : AVC
Формат/Информация : Advanced Video Codec
Профиль формата : High@L4
Настройки формата : CABAC / 4 Ref Frames
Параметр CABAC формата : Да
Параметр RefFrames формата : 4 кадра
Идентификатор кодека : V_MPEG4/ISO/AVC
Продолжительность : 44 м. 49 с.
Битрейт : 5013 Кбит/сек
Ширина : 1920 пикселей
Высота : 1080 пикселей
Соотношение сторон : 16:9
Режим частоты кадров : Постоянный
Частота кадров : 25,000 кадров/сек
Цветовое пространство : YUV
Субдискретизация насыщенности : 4:2:0
Битовая глубина : 8 бит
Тип развёртки : Прогрессивная
Бит/(Пиксели*Кадры) : 0.097
Размер потока : 1,57 Гбайт (94%)
Язык : Russian
Default : Да
Forced : Нет

Аудио
Идентификатор : 2
Формат : AC-3
Формат/Информация : Audio Coding 3
Коммерческое название : Dolby Digital
Идентификатор кодека : A_AC3
Продолжительность : 44 м. 49 с.
Вид битрейта : Постоянный
Битрейт : 192 Кбит/сек
Каналы : 2 канала
ChannelLayout : L R
Частота : 48,0 КГц
Частота кадров : 31,250 кадров/сек (1536 SPF)
Битовая глубина : 16 бит
Метод сжатия : С потерями
Размер потока : 61,6 Мбайт (4%)
Язык : Russian
ServiceKind/String : Complete Main
Default : Да
Forced : Нет

pb.wtf



Скачать Дети ветра через торрент https://a.radikal.ru/a11/2009/5b/fb44da2ebedf.jpg Скачать фильм Дети ветра через торрент бесплантно в хорошем качестве Описание: Внешние атрибуты жизни Натальи вполне соответствуют статусу счастливого человека. Любимый муж Павел и дочь Вика - что еще нужно ... 10 10 3
Торрент: Зарегистрирован [2020-09-27 05:11] · скачан: 23 раз
Статус: √ проверено
Размер: 6.61 GB
Как cкачать? Как скачать Дети ветра через торрент | qTorrent

% Раздел Тема Автор DL S | L
Наши сериалы [ 7.15 GB ] Дети ветра / Серии: 1-4 из 4 [2020 HDTV 1080i] bober100 Скачать
2 | 0
Наши сериалы [ 2.21 GB ] Дети ветра / Серии: 1-4 из 4 [2020 WEB-DLRip-AVC] bober100 Скачать
1 | 0
Наши сериалы [ 2.22 GB ] Дети ветра / Серии: 1-4 из 4 [2020 WEB-DLRip] bober100 Скачать
2 | 0

28-11-2019 20:33  

Отключить всю рекламу на сайте

    Дорогой пользователь! Огромная просьба, поблагодарите релизера, оцените раздачу и оставьте свои комментарий, если Вы скачали Дети ветра через торрент бесплатно! Внесите свою лепту в развитие PiratBit!
    Комментировать посты могут только пользователи прошедшие не сложную регистрацию
    Показать сообщения:    

    Дети ветра через торрент
    Скачать бесплатно Дети ветра
    Дети ветра скачать торрент
    Дети ветра смотреть онлайн
    Cкачать фильм Дети ветра бесплатно
    Дети ветра скачать торрент в хорошем качестве
    Дети ветра смотреть онлайн бесплатно в хорошем качестве


    Вы не можете начинать темы
    Вы не можете отвечать на сообщения
    Вы не можете редактировать свои сообщения
    Вы не можете удалять свои сообщения
    Вы не можете голосовать в опросах
    Вы не можете прикреплять файлы к сообщениям
    Вы можете скачивать файлы