Ссылка на приватное зеркало нашего сайта всего за 1$. Внимание количество ограничено!!!

2 сезон

iTunes

1 сезон

1

iTunes

iTunes

iTunes

1 сезон

RePack

30

ИГРА 18+

pack

ВАЖНО

!!Акция!!

Alien_RageХит недели

RePack

MK11
pack

Забери бонус

RePack

jed

!!Акция!!

Alien_Rage

RePack

fifa19

RePack

Assassins Creed: Odyssey

RePack

NEED FOR SPEED™ PAYBACK

4 сезон

9 сезон

Бесстыжие 9 сезон

Все сериалы

все сериалы на PB.wtf

RePack

FAR CRY 5
  

Молочные зубы / Babyteeth (Шеннон Мерфи) [2019, драма, комедия, WEB-DL 1080p] [MVO] (Студия Мельница) pb.wtf

Молочные зубы через торрент pb.wtf

Раздают: 4 [ 0 KB/s ]
Размер: 7.77 GB | Добавлен: 24 д. назад | Торрент скачан:46 раз
Скачать  

27-09-2020 20:19 Молочные зубы Скачать торрент  

Молочные зубы / Babyteeth


Год выпуска: 2019
Страна: Австралия
Жанр: драма, комедия
Продолжительность: 01:57:45
Перевод: Профессиональный (многоголосый закадровый) | Студия Мельница
Субтитры: eng

Режиссер:
Шеннон Мерфи / Shannon Murphy
В ролях: Бен Мендельсон, Эсси Дэвис, Элайза Сканлен, Тоби Уоллес, Джорджина Симес, Эмили Барклай, Чарльз Граундс, Джастин Смит, Арка Дас, Присцилла Дуэи
Описание: Когда Милла встречает Мозеса, кажется, что у них ничего общего: она – робкий подросток с несерьезными родителями и серьезным диагнозом, он – вороватый бездельник, который соглашается потусоваться с Миллой ради дозы морфина. Первая любовь, неловкая и насмешливая, и задумчивая история о прощании с детством и с родителями сплетаются в нескольких солнечных днях накануне теплого австралийского Рождества.
rating

Качество видео: WEB-DL 1080p
Формат видео: MKV

Видео: 8432 Kb/s, 1792x1080, ~23.976 fps
Аудио: AC3, 48.0 KHz, 192 Kb/s (2 ch) [rus]
Аудио 2: E-AC3, 48.0 KHz, 640 Kb/s (6 ch) [eng]
General
Unique ID : 206101129415447005473843830143646967449 (0x9B0DA23848AC48DD89FE5C5D92BC2699)
Complete name : D:\Kino D\Babyteeth.2019.WEB-DL.1080p..mkv
Format : Matroska
Format version : Version 2
File size : 7.77 GiB
Duration : 1 h 57 min
Overall bit rate : 9 452 kb/s
Encoded date : UTC 2020-09-26 00:27:44
Writing application : mkvmerge v5.8.0 ('No Sleep / Pillow') built on Sep 2 2012 15:37:04
Writing library : libebml v1.2.3 + libmatroska v1.3.0

Video
ID : 1
Format : AVC
Format/Info : Advanced Video Codec
Format profile : High@L4
Format settings : CABAC / 4 Ref Frames
Format settings, CABAC : Yes
Format settings, Reference : 4 frames
Codec ID : V_MPEG4/ISO/AVC
Duration : 1 h 57 min
Bit rate mode : Constant
Bit rate : 8 432 kb/s
Nominal bit rate : 10 000 kb/s
Width : 1 792 pixels
Height : 1 080 pixels
Display aspect ratio : 5:3
Frame rate mode : Constant
Frame rate : 23.976 (24000/1001) FPS
Color space : YUV
Chroma subsampling : 4:2:0
Bit depth : 8 bits
Scan type : Progressive
Bits/(Pixel*Frame) : 0.182
Stream size : 6.94 GiB (89%)
Language : English
Default : Yes
Forced : No
Color range : Limited
Color primaries : BT.709
Transfer characteristics : BT.709
Matrix coefficients : BT.709

Audio #1
ID : 2
Format : AC-3
Format/Info : Audio Coding 3
Commercial name : Dolby Digital
Codec ID : A_AC3
Duration : 1 h 57 min
Bit rate mode : Constant
Bit rate : 192 kb/s
Channel(s) : 2 channels
Channel layout : L R
Sampling rate : 48.0 kHz
Frame rate : 31.250 FPS (1536 SPF)
Compression mode : Lossy
Stream size : 162 MiB (2%)
Language : Russian
Service kind : Complete Main
Default : Yes
Forced : No

Audio #2
ID : 3
Format : E-AC-3
Format/Info : Enhanced AC-3
Commercial name : Dolby Digital Plus
Codec ID : A_EAC3
Duration : 1 h 57 min
Bit rate mode : Constant
Bit rate : 640 kb/s
Channel(s) : 6 channels
Channel layout : L R C LFE Ls Rs
Sampling rate : 48.0 kHz
Frame rate : 31.250 FPS (1536 SPF)
Compression mode : Lossy
Stream size : 539 MiB (7%)
Language : English
Service kind : Complete Main
Default : No
Forced : No

Text #1
ID : 4
Format : UTF-8
Codec ID : S_TEXT/UTF8
Codec ID/Info : UTF-8 Plain Text
Language : English
Default : No
Forced : No

Text #2
ID : 5
Format : UTF-8
Codec ID : S_TEXT/UTF8
Codec ID/Info : UTF-8 Plain Text
Title : SDH
Language : English
Default : No
Forced : No
скриншот  скриншот  скриншот  
pb.wtf



Скачать Молочные зубы через торрент https://b.radikal.ru/b23/2009/b0/be557dd3bf62.jpg Скачать фильм Молочные зубы через торрент бесплантно в хорошем качестве Описание: Когда Милла встречает Мозеса, кажется, что у них ничего общего: она – робкий подросток с несерьезными родителями и серьезным ... 9.3 10 4
Торрент: Зарегистрирован [2020-09-27 20:19] · скачан: 46 раз
Статус: √ проверено
Размер: 7.77 GB
Как cкачать? Как скачать Молочные зубы через торрент | qTorrent

% Раздел Тема Автор DL S | L
Фильмы 2019-2020 [DVDrip, WEB-DLRip, HDrip] (DUB, MVO) [ 1.46 GB ] Молочные зубы / Babyteeth [2019 WEB-DLRip] [MVO] killermax2013 Скачать
5 | 0

28-11-2019 20:33  

Отключить всю рекламу на сайте

    Дорогой пользователь! Огромная просьба, поблагодарите релизера, оцените раздачу и оставьте свои комментарий, если Вы скачали Молочные зубы через торрент бесплатно! Внесите свою лепту в развитие PiratBit!
    Комментировать посты могут только пользователи прошедшие не сложную регистрацию
    Показать сообщения:    

    Молочные зубы через торрент
    Скачать бесплатно Молочные зубы
    Молочные зубы скачать торрент
    Молочные зубы смотреть онлайн
    Cкачать фильм Молочные зубы бесплатно
    Молочные зубы скачать торрент в хорошем качестве
    Молочные зубы смотреть онлайн бесплатно в хорошем качестве


    Вы не можете начинать темы
    Вы не можете отвечать на сообщения
    Вы не можете редактировать свои сообщения
    Вы не можете удалять свои сообщения
    Вы не можете голосовать в опросах
    Вы не можете прикреплять файлы к сообщениям
    Вы можете скачивать файлы