2 сезон

iTunes

MVO

1

2 сезон

iTunes

iTunes

1 сезон

RePack

30

Новинка

ВАЖНО

ИГРА 18+

pack

RePack

MK11
pack

Легкие деньги

RePack

jed

RePack

fifa19

RePack

RDR2

RePack

NEED FOR SPEED™ PAYBACK

4 сезон

9 сезон

Бесстыжие 9 сезон

Все сериалы

все сериалы на PB.wtf

RePack

FAR CRY 5

Anonymous, доброе утро, мы не успеваем собрать деньги на оплату серверов за декабрь и январь, помогите нам пожалуйста в это трудное время. В качестве благодарности мы отключим Вам всю рекламу на сайте (укажите свой ник в строку Ваше имя)!

×
  
Magnet ссылка

Национальная безопасность / National Security (Деннис Дуган) [2003 г., боевик, триллер, комедия, криминал, BDRip 720p / 60 FPS, Дубляж] от R.G. HD-Films pb.wtf

Национальная безопасность через торрент pb.wtf

Размер: 3.76 GB | Добавлен: 3 мес. 24 д. назад | Торрент скачан:94 раза
Скачать  

28-09-2020 09:37 Национальная безопасность Скачать торрент  

Национальная безопасность / National Security
Год выпуска: 2003
Страна: США
Жанр: боевик, триллер, комедия, криминал
Продолжительность: 01:28:20
Перевод: Дубляж
Субтитры: Russian, English

Режиссер: Деннис Дуган

Премьера в мире: 15 января 2003

rating

В ролях: Мартин Лоуренс, Стив Зан, Колм Фиор, Билл Дьюк, Эрик Робертс, Тимоти Басфилд, Робин Ли, Мэтт МакКой, Бретт Каллен, Клио Кинг

Описание: Стать полицейским - мечта многих мальчишек. Стать офицером - мечта многих курсантов полицейской академии. А быть офицером службы «Национальной безопасности» означает только одно - быть неудачником. Эрл Монтгомери очутился там за систематическое нарушение дисциплины - его сочли недостойным носить звание полицейского. Незадолго до этого он подставил Хэнка Рафферти. По иронии судьбы они становятся напарниками, и отношения между ними скорее напоминают боевые действия. Своими выездами на дежурство они умудряются «достать» весь город. И теперь в городе найдется немало желающих «замочить» эту парочку. Если только бравые блюстители порядка первыми не перебьют друг друга!

Качество: BDRip 720p / 60 FPS
Формат: MKV
Видео кодек: H.264
Аудио кодек: AC3
Видео: x264, 1280 x 696 ( 1,85:1 ), 5707 kbps, 60,000 fps, ( 0.107 bpp)
Аудио#1: Русский, AC-3, 48.0 KHz, 6 ch, 384 Kbps Dub
Релиз от:

скриншот   скриншот   скриншот   скриншот   скриншот   скриншот  Автор рипа: slaventi-69
x264 [info]: frame I:1622 Avg QP:16.08 size: 81432
x264 [info]: frame P:76558 Avg QP:16.97 size: 24131
x264 [info]: frame B:239521 Avg QP:19.91 size: 7506
x264 [info]: consecutive B-frames: 2.7% 2.4% 9.7% 19.5% 50.0% 15.7%


Общее
Уникальный идентификатор : 230901500316123964702388259943987413368 (0xADB602E8E67888D0B39C7F8DBB9A0178)
Полное имя : F:\National.Security.(2003).BDRip.720p.(60 Fps).mkv
Формат : Matroska
Версия формата : Version 4
Размер файла : 3,76 Гбайт
Продолжительность : 1 ч. 28 м.
Общий поток : 6095 Кбит/сек
Название фильма : Национальная безопасность / National Security (2003) BDRip 720p (60 Fps)
Дата кодирования : UTC 2020-09-20 15:10:49
Программа кодирования : mkvmerge v9.1.0 ('Little Earthquakes') 64bit
Библиотека кодирования : libebml v1.3.3 + libmatroska v1.4.4

Видео
Идентификатор : 1
Формат : AVC
Формат/Информация : Advanced Video Codec
Профиль формата : High@L4.1
Настройки формата : CABAC / 9 Ref Frames
Параметр CABAC формата : Да
Параметр RefFrames формата : 9 кадров
Идентификатор кодека : V_MPEG4/ISO/AVC
Продолжительность : 1 ч. 28 м.
Битрейт : 5707 Кбит/сек
Ширина : 1280 пикселей
Высота : 696 пикселей
Соотношение сторон : 1,85:1
Режим частоты кадров : Постоянный
Частота кадров : 60,000 кадров/сек
Цветовое пространство : YUV
Субдискретизация насыщенности : 4:2:0
Битовая глубина : 8 бит
Тип развёртки : Прогрессивная
Бит/(Пиксели*Кадры) : 0.107
Размер потока : 3,52 Гбайт (94%)
Заголовок : slaventi-69 ( R.G. HD-Films | 60 fps )
Библиотека кодирования : x264 core 130 r2273 b3065e6
Настройки программы : cabac=1 / ref=9 / deblock=1:0:0 / analyse=0x3:0x113 / me=umh / subme=9 / psy=1 / psy_rd=1.00:0.00 / mixed_ref=1 / me_range=32 / chroma_me=1 / trellis=2 / 8x8dct=1 / cqm=0 / deadzone=21,11 / fast_pskip=1 / chroma_qp_offset=-2 / threads=10 / lookahead_threads=4 / sliced_threads=0 / nr=0 / decimate=1 / interlaced=0 / bluray_compat=0 / constrained_intra=0 / bframes=5 / b_pyramid=2 / b_adapt=2 / b_bias=0 / direct=1 / weightb=1 / open_gop=0 / weightp=2 / keyint=600 / keyint_min=60 / scenecut=40 / intra_refresh=0 / rc=crf / mbtree=0 / crf=16.3 / qcomp=0.60 / qpmin=0 / qpmax=69 / qpstep=4 / ip_ratio=1.40 / pb_ratio=1.30 / aq=1:1.00
Язык : English
Default : Да
Forced : Нет

Аудио
Идентификатор : 2
Формат : AC-3
Формат/Информация : Audio Coding 3
Коммерческое название : Dolby Digital
Идентификатор кодека : A_AC3
Продолжительность : 1 ч. 28 м.
Вид битрейта : Постоянный
Битрейт : 384 Кбит/сек
Каналы : 6 каналов
Channel layout : L R C LFE Ls Rs
Частота : 48,0 КГц
Частота кадров : 31,250 кадров/сек (1536 SPF)
Битовая глубина : 16 бит
Метод сжатия : С потерями
Размер потока : 242 Мбайт (6%)
Заголовок : Dub
Язык : Russian
ServiceKind/String : Complete Main
Default : Да
Forced : Нет

Текст #1
Идентификатор : 3
Формат : UTF-8
Идентификатор кодека : S_TEXT/UTF8
Идентификатор кодека/Информация : UTF-8 Plain Text
Продолжительность : 1 ч. 21 м.
Битрейт : 119 бит/сек
ElementCount : 1116
Размер потока : 71,3 Кбайт (0%)
Заголовок : FULL
Язык : Russian
Default : Нет
Forced : Нет

Текст #2
Идентификатор : 4
Формат : UTF-8
Идентификатор кодека : S_TEXT/UTF8
Идентификатор кодека/Информация : UTF-8 Plain Text
Продолжительность : 1 ч. 21 м.
Битрейт : 66 бит/сек
ElementCount : 1081
Размер потока : 39,6 Кбайт (0%)
Заголовок : FULL
Язык : English
Default : Нет
Forced : Нет

Меню
00:00:00.000 : :Chapter 01
00:05:13.230 : :Chapter 02
00:10:40.223 : :Chapter 03
00:14:48.471 : :Chapter 04
00:19:17.656 : :Chapter 05
00:25:22.104 : :Chapter 06
00:30:30.954 : :Chapter 07
00:38:21.799 : :Chapter 08
00:42:06.107 : :Chapter 09
00:46:42.883 : :Chapter 10
00:52:32.649 : :Chapter 11
00:58:30.841 : :Chapter 12
01:04:38.541 : :Chapter 13
01:08:49.292 : :Chapter 14
01:14:16.535 : :Chapter 15
01:21:11.950 : :Chapter 16

Просьба к переливающим на другие сайты, в оформлении указывайте пожалуйста авторство группы R.G. HD-Films pb.wtf



Скачать Национальная безопасность через торрент http://i46.fastpic.ru/big/2013/0708/e7/c39650233a21fbc562067c95af63e3e7.png Скачать фильм Национальная безопасность через торрент бесплантно в хорошем качестве Описание: Стать полицейским - мечта многих мальчишек. Стать офицером - мечта многих курсантов полицейской академии. А быть офицером службы ... 10 10 11
Info! Золотая раздача, скачанное не засчитывается.
Торрент: Зарегистрирован [2020-09-28 09:37] · скачан: 94 раз
Статус: √ проверено
Размер: 3.76 GB
Как cкачать? Как скачать Национальная безопасность через торрент | UTorrent

28-11-2019 20:33  

Отключить всю рекламу на сайте

28-09-2020 19:36 Национальная безопасность Скачать торрент  

Ещё один шедевр в коллекцию! slaventi-69, респект и уважуха тебе дружище! Ждём продолжения твоих раздач! Ну а с планами ещё поможем!pb.wtf



    Дорогой пользователь! Огромная просьба, поблагодарите релизера, оцените раздачу и оставьте свои комментарий, если Вы скачали Национальная безопасность через торрент бесплатно! Внесите свою лепту в развитие PiratBit!
    Комментировать посты могут только пользователи прошедшие не сложную регистрацию
    Показать сообщения:    

    Национальная безопасность через торрент
    Скачать бесплатно Национальная безопасность
    Национальная безопасность скачать торрент
    Национальная безопасность смотреть онлайн
    Cкачать фильм Национальная безопасность бесплатно
    Национальная безопасность скачать торрент в хорошем качестве
    Национальная безопасность смотреть онлайн бесплатно в хорошем качестве


    Вы не можете начинать темы
    Вы не можете отвечать на сообщения
    Вы не можете редактировать свои сообщения
    Вы не можете удалять свои сообщения
    Вы не можете голосовать в опросах
    Вы не можете прикреплять файлы к сообщениям
    Вы можете скачивать файлы