2 сезон

iTunes

MVO

1

2 сезон

iTunes

iTunes

1 сезон

RePack

30

Новинка

ВАЖНО

ИГРА 18+

pack

RePack

MK11
pack

Легкие деньги

RePack

jed

RePack

fifa19

RePack

RDR2

RePack

NEED FOR SPEED™ PAYBACK

4 сезон

9 сезон

Бесстыжие 9 сезон

Все сериалы

все сериалы на PB.wtf

RePack

FAR CRY 5

Anonymous, доброе утро, мы не успеваем собрать деньги на оплату серверов за декабрь и январь, помогите нам пожалуйста в это трудное время. В качестве благодарности мы отключим Вам всю рекламу на сайте (укажите свой ник в строку Ваше имя)!

×
  
Magnet ссылка

Луна / Luna (Халед Кайсар) [2017, Триллер, криминал, HDRip-AVC] [MVO] [Синема Ус] | от Mediabit pb.wtf

Луна через торрент pb.wtf

Раздают: 1 [ 0 KB/s ]
Размер: 1.45 GB | Добавлен: 3 мес. 27 д. назад | Торрент скачан:114 раз
Скачать  

28-09-2020 17:28 Луна Скачать торрент  


Луна / Luna
Информация о фильме:
Название: Луна
Оригинальное название: Luna
Год выхода: 2017
Жанр: Триллер, криминал
Режиссер: Халед Кайсар

В ролях: Лиза Викари, Карло Льюбек, Бранко Томович, Райнер Бок, Бибиана Беглау, Беньямин Задлер, Гения Рикова, Анника Блендль, Александр Байер, Оливия Кристманн

Описание: 17-летняя Луна – умная, беззаботная и уверенная в себе девушка. Она проводит выходные в горах со своей семьей, когда неожиданно отдых превращается в кошмар. Три незнакомца побираются в хижину, где жестоко убивают родителей Луны и ее младшую сестру, но девушка успевает сбежать от преступников. Вскоре она узнает, что все это время жила во лжи...

rating

Страна: Германия
Студия: Kaissar Film, Rat Pack Filmproduktion, CinePostproduction
Продолжительность: 01:31:51
Перевод: Любительский (многоголосый, закадровый) - Синема Ус



Информация о файле:
Кодек: AVC
Формат: MKV
Качество: WEB-DLRip-AVC
Видео: MPEG-4 AVC, 1024x 428 (2.40:1), 24.000 fps, 2064 kbps, 0.196
Аудио RU: AC3, 2 ch, 48 kHz, 192 kbps
Субтитры: Английские, немецкие

x264 info: frame I:991 Avg QP:15.71 size: 63868
x264 info: frame P:32864 Avg QP:18.94 size: 19759
x264 info: frame B:98428 Avg QP:20.65 size: 7187
x264 info: consecutive B-frames: 3.7% 4.8% 9.9% 29.2% 13.6% 31.8% 2.8% 1.9% 0.4% 1.0% 0.3% 0.6%
=========================================================
General
Unique ID : 215538654174287647386228323426001779161 (0xA2273C1D7906739B86D7729AF6E479D9)
Complete name : D:uTorrentРипы_от_wolf1245_MediaBitLuna (2017) wolf1245 & MediaBit.mkv
Format : Matroska
Format version : Version 4
File size : 1.45 GiB
Duration : 1 h 31 min
Overall bit rate : 2 255 kb/s
Movie name : Luna (2017) from wolf1245 & MediaBit
Encoded date : UTC 2020-09-28 17:13:29
Writing application : mkvmerge v50.0.0 ('Awakenings') 64-bit
Writing library : libebml v1.4.0 + libmatroska v1.6.2
Attachments : Постер Луна
Video
ID : 1
Format : AVC
Format/Info : Advanced Video Codec
Format profile : High@L4.1
Format settings : CABAC / 11 Ref Frames
Format settings, CABAC : Yes
Format settings, Reference frames : 11 frames
Codec ID : V_MPEG4/ISO/AVC
Duration : 1 h 31 min
Bit rate : 2 064 kb/s
Width : 1 024 pixels
Height : 428 pixels
Display aspect ratio : 2.40:1
Frame rate mode : Constant
Frame rate : 24.000 FPS
Color space : YUV
Chroma subsampling : 4:2:0
Bit depth : 8 bits
Scan type : Progressive
Bits/(Pixel*Frame) : 0.196
Stream size : 1.32 GiB (91%)
Title : wolf1245 & MediaBit
Writing library : x264 core 157 r2958 57baac4
Encoding settings : cabac=1 / ref=11 / deblock=1:-3:-3 / analyse=0x3:0x133 / me=umh / subme=11 / psy=1 / psy_rd=1.03:0.08 / mixed_ref=1 / me_range=48 / chroma_me=1 / trellis=2 / 8x8dct=1 / cqm=0 / deadzone=21,11 / fast_pskip=0 / chroma_qp_offset=-3 / threads=10 / lookahead_threads=2 / sliced_threads=0 / nr=0 / decimate=0 / interlaced=0 / bluray_compat=0 / constrained_intra=0 / bframes=11 / b_pyramid=2 / b_adapt=2 / b_bias=0 / direct=3 / weightb=1 / open_gop=0 / weightp=2 / keyint=240 / keyint_min=24 / scenecut=40 / intra_refresh=0 / rc_lookahead=50 / rc=2pass / mbtree=0 / bitrate=2064 / ratetol=1.0 / qcomp=0.60 / qpmin=0 / qpmax=69 / qpstep=4 / cplxblur=20.0 / qblur=0.5 / vbv_maxrate=50000 / vbv_bufsize=62500 / nal_hrd=none / filler=0 / ip_ratio=1.40 / pb_ratio=1.30 / aq=2:0.80
Language : German
Default : Yes
Forced : No
Audio
ID : 2
Format : AC-3
Format/Info : Audio Coding 3
Commercial name : Dolby Digital
Codec ID : A_AC3
Duration : 1 h 31 min
Bit rate mode : Constant
Bit rate : 192 kb/s
Channel(s) : 2 channels
Channel layout : L R
Sampling rate : 48.0 kHz
Frame rate : 31.250 FPS (1536 SPF)
Compression mode : Lossy
Stream size : 126 MiB (9%)
Title : MVO [Синема УС] MediaBit
Language : Russian
Service kind : Complete Main
Default : Yes
Forced : No
Text #1
ID : 3
Format : UTF-8
Codec ID : S_TEXT/UTF8
Codec ID/Info : UTF-8 Plain Text
Duration : 1 h 24 min
Bit rate : 21 b/s
Count of elements : 451
Stream size : 13.5 KiB (0%)
Language : English
Default : No
Forced : No
Text #2
ID : 4
Format : UTF-8
Codec ID : S_TEXT/UTF8
Codec ID/Info : UTF-8 Plain Text
Duration : 1 h 26 min
Bit rate : 28 b/s
Count of elements : 569
Stream size : 17.7 KiB (0%)
Language : German
Default : No
Forced : No
Релиз от: & &
pb.wtf



Скачать Луна через торрент https://d.radikal.ru/d04/2009/19/d33a088b2f51.jpg Скачать фильм Луна через торрент бесплантно в хорошем качестве Описание: 17-летняя Луна – умная, беззаботная и уверенная в себе девушка. Она проводит выходные в горах со своей семьей, когда неожиданно ... 10 10 6
Торрент: Зарегистрирован [2020-09-28 17:28] · скачан: 114 раз
Статус: T временная
Размер: 1.45 GB
Как cкачать? Как скачать Луна через торрент | UTorrent

28-11-2019 20:33  

Отключить всю рекламу на сайте

    Дорогой пользователь! Огромная просьба, поблагодарите релизера, оцените раздачу и оставьте свои комментарий, если Вы скачали Луна через торрент бесплатно! Внесите свою лепту в развитие PiratBit!
    Комментировать посты могут только пользователи прошедшие не сложную регистрацию
    Показать сообщения:    

    Луна через торрент
    Скачать бесплатно Луна
    Луна скачать торрент
    Луна смотреть онлайн
    Cкачать фильм Луна бесплатно
    Луна скачать торрент в хорошем качестве
    Луна смотреть онлайн бесплатно в хорошем качестве


    Вы не можете начинать темы
    Вы не можете отвечать на сообщения
    Вы не можете редактировать свои сообщения
    Вы не можете удалять свои сообщения
    Вы не можете голосовать в опросах
    Вы не можете прикреплять файлы к сообщениям
    Вы можете скачивать файлы