Ссылка на приватное зеркало нашего сайта всего за 1$. Внимание количество ограничено!!!

2 сезон

iTunes

1 сезон

1

iTunes

iTunes

iTunes

1 сезон

RePack

30

ИГРА 18+

pack

ВАЖНО

!!Акция!!

Alien_RageХит недели

RePack

MK11
pack

Забери бонус

RePack

jed

!!Акция!!

Alien_Rage

RePack

fifa19

RePack

Assassins Creed: Odyssey

RePack

NEED FOR SPEED™ PAYBACK

4 сезон

9 сезон

Бесстыжие 9 сезон

Все сериалы

все сериалы на PB.wtf

RePack

FAR CRY 5
  

Гадалка / Сезон: 2 / Серии: 1-7 из 16 (Илья Казанков) [2020, Детектив, драма, мистика, HDTVRip] pb.wtf

Гадалка через торрент pb.wtf

Размер: 4.49 GB | Добавлен: 23 д. назад | Торрент скачан:10 раз
Скачать  

29-09-2020 04:57 Гадалка Скачать торрент  

Гадалка 2
Год выпуска: 2020
Страна: Россия
Выпущено: Продюсерский Центр "Горад" "ВВП Альянс"
Жанр: Детектив, драма, мистика
Продолжительность: ~ 00:54:00
Перевод: Не требуется
Субтитры: отсутствуют

Режиссер: Илья Казанков

rating

В ролях: Михаил Пореченков, Екатерина Олькина, Марат Башаров, Яна Крайнова, Василий Бочкарёв, Дмитрий Репин, Владимир Капустин, Михаил Парыгин, Юлия Ауг, Александр Асташёнок, Маргарита Конышева (II), Евгения Дмитриева, Анна Зайкова, Лидия Мельникова, Константин Воробьёв, Борис Эстрин, Дарья Баслык, Анастасия Звягина, Анна Балобанова, Лиза Макеева, Виктор Пипа, Иван Ефремов (II), Игорь Штернберг, Александр Никольский (II), Олег Евтеев, Александр Коротков, Диана Арбенина, Виктор Конухин, Дмитрий Митин, Андрей Козлов

Описание: Продолжение истории майора Потапова и необычной девушки Люси. У Люси видение: она видит смерть Потапова, он умирает у неё на руках, на их свадьбе. Это страшное видение преследует её. Кто стрелял? Как спасти Потапова? Она должна увидеть! Должна изменить неизбежное! Пока она это не сделает, они не могут быть вместе...

Качество: HDTVRip
Формат: AVI

Видео: XviD, ~ 1600 Кбит/с, 720x400, 25 кадр/с
Аудио: 48.0 kHz, AC3 Dolby Digital, 2/0 (L,R) ch, ~ 192 kbps
скриншот  скриншот  скриншот  скриншот  

Общее
Полное имя : D:Gadalka.S02.HDTVRip.GeneralFilm1.Gadalka.S02.HDTVRip.GeneralFilm.avi
Формат : AVI
Формат/Информация : Audio Video Interleave
Размер файла : 698 Мбайт
Продолжительность : 54 м.
Общий поток : 1802 Кбит/сек

Видео
Идентификатор : 0
Формат : MPEG-4 Visual
Профиль формата : Advanced Simple@L5
Параметр BVOP формата : 1
Параметр QPel формата : Нет
Параметр GMC формата : Без точки перехода
Параметр матрицы формата : Выборочная
Идентификатор кодека : XVID
Идентификатор кодека/Подсказка : XviD
Продолжительность : 54 м.
Битрейт : 1599 Кбит/сек
Ширина : 720 пикселей
Высота : 400 пикселей
Соотношение сторон : 16:9
Частота кадров : 25,000 кадров/сек
Цветовое пространство : YUV
Субдискретизация насыщенности : 4:2:0
Битовая глубина : 8 бит
Тип развёртки : Прогрессивная
Метод сжатия : С потерями
Бит/(Пиксели*Кадры) : 0.222
Размер потока : 619 Мбайт (89%)
Библиотека кодирования : XviD 73

Аудио
Идентификатор : 1
Формат : AC-3
Формат/Информация : Audio Coding 3
Расширение режима : CM (complete main)
Параметр Endianness формата : Big
Идентификатор кодека : 2000
Продолжительность : 54 м.
Вид битрейта : Постоянный
Битрейт : 192 Кбит/сек
Каналы : 2 канала
Расположение каналов : Front: L R
Частота : 48,0 КГц
Битовая глубина : 16 бит
Метод сжатия : С потерями
Размер потока : 74,3 Мбайт (11%)
Выравнивание : Соединение по промежуткам
Продолжительность промежутка : 32 мс. (0,80 видеокадр)

Когда раздача ведётся путём добавления новых серий, при каждом добавлении создётся новый торрент. Чтобы начать докачку новой серии, пользователям необходимо сделать следующее:
(1) остановить скачивание,
(2) удалить старый торрент у себя из клиента (старые серии удалять не надо),
(3) скачать новый торрент и запустить его у себя в клиенте вместо старого, при этом указать клиенту путь в старую папку, куда и должно происходить скачивание новых серий.
Ваш клиент при этом должен произвести хеширование (проверку) старой папки (если не производит сам - помогите ему сделать это), и будет докачивать только те серии, которых у вас ещё нет. Старые серии при этом не удаляются, а продолжают раздаваться!
Eсли вы уже удалили старые серии, то предотвратить повторную закачку старых серий можно, отжав галочку в соответсвующих местах при запуске нового торрента. По возможности, желательно не удалять старые серии как можно дольше, чтобы релизёр не столько продолжал раздавать старые серии, а смог сконцентрироваться на новых.

pb.wtf



Скачать Гадалка через торрент http://c.radikal.ru/c01/2009/ab/0a614b4bdbbd.jpg Скачать фильм Гадалка через торрент бесплантно в хорошем качестве Описание: Продолжение истории майора Потапова и необычной девушки Люси. У Люси видение: она видит смерть Потапова, он умирает у неё на ... 8.5 10 6
Торрент: Зарегистрирован [2020-10-01 23:38] · скачан: 10 раз
Статус: √ проверено
Размер: 4.49 GB
Как cкачать? Как скачать Гадалка через торрент | qTorrent

% Раздел Тема Автор DL S | L
Наши сериалы [ 4.1 GB ] Гадалка / Сезон: 2 / Серии: 1-7 из 16 [2020 SATRip] bober100 Скачать
1 | 0
Наши сериалы [ 5.47 GB ] Гадалка / Сезон: 2 / Серии: 1-7 из 16 [2020 HDTVRip-AVC] bober100 Скачать
3 | 0
Наши сериалы [ 9.2 GB ] Гадалка / Сезон: 2 / Серии: 1-7 из 16 [2020 HDTVRip 720p] bober100 Скачать
1 | 0
Наши сериалы [ 15.3 GB ] Гадалка / Сезон: 2 / Серии: 1-7 из 16 [2020 HDTV 1080i] bober100 Скачать
1 | 0

28-11-2019 20:33  

Отключить всю рекламу на сайте

    Дорогой пользователь! Огромная просьба, поблагодарите релизера, оцените раздачу и оставьте свои комментарий, если Вы скачали Гадалка через торрент бесплатно! Внесите свою лепту в развитие PiratBit!
    Комментировать посты могут только пользователи прошедшие не сложную регистрацию
    Показать сообщения:    

    Гадалка через торрент
    Скачать бесплатно Гадалка
    Гадалка скачать торрент
    Гадалка смотреть онлайн
    Cкачать фильм Гадалка бесплатно
    Гадалка скачать торрент в хорошем качестве
    Гадалка смотреть онлайн бесплатно в хорошем качестве


    Вы не можете начинать темы
    Вы не можете отвечать на сообщения
    Вы не можете редактировать свои сообщения
    Вы не можете удалять свои сообщения
    Вы не можете голосовать в опросах
    Вы не можете прикреплять файлы к сообщениям
    Вы можете скачивать файлы