2 сезон

iTunes

1 сезон

1

iTunes

iTunes

iTunes

1 сезон

RePack

30

ИГРА 18+

pack

ВАЖНО

!!Акция!!

Alien_RageХит недели

RePack

MK11
pack

Забери бонус

RePack

jed

!!Акция!!

Alien_Rage

RePack

fifa19

RePack

Assassins Creed: Odyssey

RePack

NEED FOR SPEED™ PAYBACK

4 сезон

9 сезон

Бесстыжие 9 сезон

Все сериалы

все сериалы на PB.wtf

RePack

FAR CRY 5
  

Гадалка / Сезон: 2 / Серии: 1-7 из 16 (Илья Казанков) [2020, Детектив, драма, мистика, HDTVRip 720p] pb.wtf

Гадалка через торрент pb.wtf

Размер: 9.2 GB | Добавлен: 28 д. назад | Торрент скачан:6 раз
Скачать  

29-09-2020 05:02 Гадалка Скачать торрент  

Гадалка 2
Год выпуска: 2020
Страна: Россия
Выпущено: Продюсерский Центр "Горад" "ВВП Альянс"
Жанр: Детектив, драма, мистика
Продолжительность: ~ 00:54:00
Перевод: Не требуется
Субтитры: отсутствуют

Режиссер: Илья Казанков

rating

В ролях: Михаил Пореченков, Екатерина Олькина, Марат Башаров, Яна Крайнова, Василий Бочкарёв, Дмитрий Репин, Владимир Капустин, Михаил Парыгин, Юлия Ауг, Александр Асташёнок, Маргарита Конышева (II), Евгения Дмитриева, Анна Зайкова, Лидия Мельникова, Константин Воробьёв, Борис Эстрин, Дарья Баслык, Анастасия Звягина, Анна Балобанова, Лиза Макеева, Виктор Пипа, Иван Ефремов (II), Игорь Штернберг, Александр Никольский (II), Олег Евтеев, Александр Коротков, Диана Арбенина, Виктор Конухин, Дмитрий Митин, Андрей Козлов

Описание: Продолжение истории майора Потапова и необычной девушки Люси. У Люси видение: она видит смерть Потапова, он умирает у неё на руках, на их свадьбе. Это страшное видение преследует её. Кто стрелял? Как спасти Потапова? Она должна увидеть! Должна изменить неизбежное! Пока она это не сделает, они не могут быть вместе...

Качество: HDTVRip 720p
Формат: MKV

Видео: MPEG-4 AVC, ~ 3500 Кбит/с, 1280x720, 25 fps
Аудио: 48.0 kHz, AC3 Dolby Digital, 2/0 (L,R) ch, ~ 192 kbps
скриншот  скриншот  скриншот  скриншот  

Общее
Уникальный идентификатор : 227558229245122959205299033461748547733 (0xAB321EEB679F1B178ACE588365EE4095)
Полное имя : D:Gadalka.S02.HDTVRip.(720p).GeneralFilm1.Gadalka.S02.HDTVRip.(720p).GeneralFilm.mkv
Формат : Matroska
Версия формата : Version 2
Размер файла : 1,40 Гбайт
Продолжительность : 54 м.
Общий поток : 3694 Кбит/сек
Дата кодирования : UTC 2020-09-28 16:55:18
Программа кодирования : mkvmerge v7.8.0 ('River Man') 32bit built on Apr 3 2015 12:11:22
Библиотека кодирования : libebml v1.3.1 + libmatroska v1.4.2

Видео
Идентификатор : 1
Формат : AVC
Формат/Информация : Advanced Video Codec
Профиль формата : High@L4.1
Параметр CABAC формата : Да
Параметр ReFrames формата : 9 кадров
Идентификатор кодека : V_MPEG4/ISO/AVC
Продолжительность : 54 м.
Битрейт : 3500 Кбит/сек
Ширина : 1280 пикселей
Высота : 720 пикселей
Соотношение сторон : 16:9
Режим частоты кадров : Постоянный
Частота кадров : 25,000 кадров/сек
Цветовое пространство : YUV
Субдискретизация насыщенности : 4:2:0
Битовая глубина : 8 бит
Тип развёртки : Прогрессивная
Бит/(Пиксели*Кадры) : 0.152
Размер потока : 1,30 Гбайт (93%)
Библиотека кодирования : x264 core 146 r2538 121396c
Настройки программы : cabac=1 / ref=9 / deblock=1:-2:-1 / analyse=0x3:0x133 / me=umh / subme=9 / psy=1 / psy_rd=1.00:0.15 / mixed_ref=1 / me_range=32 / chroma_me=1 / trellis=2 / 8x8dct=1 / cqm=0 / deadzone=21,11 / fast_pskip=0 / chroma_qp_offset=-3 / threads=18 / lookahead_threads=3 / sliced_threads=0 / nr=0 / decimate=1 / interlaced=0 / bluray_compat=0 / constrained_intra=0 / bframes=9 / b_pyramid=2 / b_adapt=2 / b_bias=0 / direct=1 / weightb=1 / open_gop=0 / weightp=2 / keyint=250 / keyint_min=25 / scenecut=40 / intra_refresh=0 / rc=2pass / mbtree=0 / bitrate=3500 / ratetol=1.0 / qcomp=0.60 / qpmin=0 / qpmax=69 / qpstep=4 / cplxblur=20.0 / qblur=0.5 / ip_ratio=1.40 / pb_ratio=1.30 / aq=2:1.00
Default : Да
Forced : Нет
Основные цвета : BT.709
Характеристики трансфера : BT.709
Коэффициенты матрицы : BT.709

Аудио
Идентификатор : 2
Формат : AC-3
Формат/Информация : Audio Coding 3
Расширение режима : CM (complete main)
Параметр Endianness формата : Big
Идентификатор кодека : A_AC3
Продолжительность : 54 м.
Вид битрейта : Постоянный
Битрейт : 192 Кбит/сек
Каналы : 2 канала
Расположение каналов : Front: L R
Частота : 48,0 КГц
Битовая глубина : 16 бит
Метод сжатия : С потерями
Размер потока : 74,3 Мбайт (5%)
Default : Да
Forced : Нет

Когда раздача ведётся путём добавления новых серий, при каждом добавлении создётся новый торрент. Чтобы начать докачку новой серии, пользователям необходимо сделать следующее:
(1) остановить скачивание,
(2) удалить старый торрент у себя из клиента (старые серии удалять не надо),
(3) скачать новый торрент и запустить его у себя в клиенте вместо старого, при этом указать клиенту путь в старую папку, куда и должно происходить скачивание новых серий.
Ваш клиент при этом должен произвести хеширование (проверку) старой папки (если не производит сам - помогите ему сделать это), и будет докачивать только те серии, которых у вас ещё нет. Старые серии при этом не удаляются, а продолжают раздаваться!
Eсли вы уже удалили старые серии, то предотвратить повторную закачку старых серий можно, отжав галочку в соответсвующих местах при запуске нового торрента. По возможности, желательно не удалять старые серии как можно дольше, чтобы релизёр не столько продолжал раздавать старые серии, а смог сконцентрироваться на новых.

pb.wtf



Скачать Гадалка через торрент http://c.radikal.ru/c01/2009/ab/0a614b4bdbbd.jpg Скачать фильм Гадалка через торрент бесплантно в хорошем качестве Описание: Продолжение истории майора Потапова и необычной девушки Люси. У Люси видение: она видит смерть Потапова, он умирает у неё на ... 10 10 4
Торрент: Зарегистрирован [2020-10-01 23:39] · скачан: 6 раз
Статус: √ проверено
Размер: 9.2 GB
Как cкачать? Как скачать Гадалка через торрент | qTorrent

% Раздел Тема Автор DL S | L
Наши сериалы [ 4.1 GB ] Гадалка / Сезон: 2 / Серии: 1-7 из 16 [2020 SATRip] bober100 Скачать
1 | 0
Наши сериалы [ 5.47 GB ] Гадалка / Сезон: 2 / Серии: 1-7 из 16 [2020 HDTVRip-AVC] bober100 Скачать
3 | 0
Наши сериалы [ 4.49 GB ] Гадалка / Сезон: 2 / Серии: 1-7 из 16 [2020 HDTVRip] bober100 Скачать
3 | 0
Наши сериалы [ 15.3 GB ] Гадалка / Сезон: 2 / Серии: 1-7 из 16 [2020 HDTV 1080i] bober100 Скачать
1 | 0

28-11-2019 20:33  

Отключить всю рекламу на сайте

    Дорогой пользователь! Огромная просьба, поблагодарите релизера, оцените раздачу и оставьте свои комментарий, если Вы скачали Гадалка через торрент бесплатно! Внесите свою лепту в развитие PiratBit!
    Комментировать посты могут только пользователи прошедшие не сложную регистрацию
    Показать сообщения:    

    Гадалка через торрент
    Скачать бесплатно Гадалка
    Гадалка скачать торрент
    Гадалка смотреть онлайн
    Cкачать фильм Гадалка бесплатно
    Гадалка скачать торрент в хорошем качестве
    Гадалка смотреть онлайн бесплатно в хорошем качестве


    Вы не можете начинать темы
    Вы не можете отвечать на сообщения
    Вы не можете редактировать свои сообщения
    Вы не можете удалять свои сообщения
    Вы не можете голосовать в опросах
    Вы не можете прикреплять файлы к сообщениям
    Вы можете скачивать файлы