Ссылка на приватное зеркало нашего сайта всего за 1$. Внимание количество ограничено!!!

2 сезон

iTunes

1 сезон

1

2 сезон

2 сезон

iTunes

1 сезон

RePack

30

Ultimate

ВАЖНО

ИГРА 18+

pack

RePack

MK11
pack

Забери бонус

RePack

jed

!!Акция!!

Alien_Rage

RePack

fifa19

RePack

Assassins Creed: Odyssey

RePack

NEED FOR SPEED™ PAYBACK

4 сезон

9 сезон

Бесстыжие 9 сезон

Все сериалы

все сериалы на PB.wtf

RePack

FAR CRY 5
  

Секрет / The Secret: Dare to Dream (Энди Теннант) [2020, Драма, мелодрама, WEB-DL 1080p] DUB [iTunes] pb.wtf

Секрет через торрент pb.wtf

Раздают: 5 [ 0.1 KB/s ]
Размер: 4.64 GB | Добавлен: 1 мес. 28 д. назад | Торрент скачан:247 раз
Скачать  

29-09-2020 09:31 Секрет Скачать торрент  

Секрет | The Secret: Dare to Dream
Год выпуска: 2020
Страна: США
Студия: TRI G, Savvy Media Holdings, Covert Media
Жанр: Драма, мелодрама
Продолжительность: 01:47:35
Перевод: Дублированный | iTunes
Субтитры: Английские

Режиссер: Энди Теннант

rating

В ролях: Кэти Холмс, Джош Лукас, Джерри О`Коннелл, Селия Уэстон, Сара Хоффмайстер, Эйдан Пирс Бреннан, Хлоя Ли, Катрина Бегин, Сидни Теннант, Саманта Больё

Описание: Когда сильный шторм разрушает дом молодой вдовы с тремя детьми, на пороге появляется таинственный незнакомец. Всего за несколько дней загадочный гость объединяет семью и помогает им найти новый смысл в жизни. Он открывает им Секрет, который может изменить все.

Качество: WEB-DL 1080p
Формат: MKV

Видео: MPEG-4 AVC, 1920x1080, 5409 Кbit/s, 23.976 fps
Аудио #01: 48 kHz, AC3, 5.1, 384 Kbps | iTunes | RUS |
Аудио #02: 48 kHz, AC3, 5.1, 384 Kbps | Оригинал | ENG |
скриншот  скриншот  скриншот  скриншот  скриншот  

General
Unique ID : 10205668713982652332582418780514264995 (0x7AD8A50F62970C8190ADDC65E41A7A3)
Complete name : D:Video111The.Secret.Dare.to.Dream.2020.WEB-DL.1080p.seleZen.mkv
Format : Matroska
Format version : Version 4
File size : 4.64 GiB
Duration : 1 h 47 min
Overall bit rate : 6 180 kb/s
Movie name : The Secret: Dare to Dream 2020 from селезень
Encoded date : UTC 2020-09-29 09:18:17
Writing application : mkvmerge v40.0.0 ('Old Town Road + Pony') 64-bit
Writing library : libebml v1.3.9 + libmatroska v1.5.2

Video
ID : 1
Format : AVC
Format/Info : Advanced Video Codec
Format profile : High@L4
Format settings : CABAC / 2 Ref Frames
Format settings, CABAC : Yes
Format settings, Reference : 2 frames
Codec ID : V_MPEG4/ISO/AVC
Duration : 1 h 47 min
Bit rate : 5 409 kb/s
Width : 1 920 pixels
Height : 1 080 pixels
Display aspect ratio : 16:9
Frame rate mode : Constant
Frame rate : 23.976 (24000/1001) FPS
Color space : YUV
Chroma subsampling : 4:2:0
Bit depth : 8 bits
Scan type : Progressive
Bits/(Pixel*Frame) : 0.109
Stream size : 4.07 GiB (88%)
Writing library : x264 core 155 r2901 7d0ff22
Language : English
Default : Yes
Forced : No
Color range : Limited
Color primaries : BT.709
Transfer characteristics : BT.709
Matrix coefficients : BT.709

Audio #1
ID : 2
Format : AC-3
Format/Info : Audio Coding 3
Commercial name : Dolby Digital
Codec ID : A_AC3
Duration : 1 h 47 min
Bit rate mode : Constant
Bit rate : 384 kb/s
Channel(s) : 6 channels
Channel layout : L R C LFE Ls Rs
Sampling rate : 48.0 kHz
Frame rate : 31.250 FPS (1536 SPF)
Compression mode : Lossy
Stream size : 295 MiB (6%)
Title : iTunes
Language : Russian
Service kind : Complete Main
Default : Yes
Forced : Yes

Audio #2
ID : 3
Format : AC-3
Format/Info : Audio Coding 3
Commercial name : Dolby Digital
Codec ID : A_AC3
Duration : 1 h 47 min
Bit rate mode : Constant
Bit rate : 384 kb/s
Channel(s) : 6 channels
Channel layout : L R C LFE Ls Rs
Sampling rate : 48.0 kHz
Frame rate : 31.250 FPS (1536 SPF)
Compression mode : Lossy
Stream size : 296 MiB (6%)
Title : Original
Language : English
Service kind : Complete Main
Default : No
Forced : No

Text
ID : 4
Format : UTF-8
Codec ID : S_TEXT/UTF8
Codec ID/Info : UTF-8 Plain Text
Duration : 1 h 39 min
Bit rate : 66 b/s
Count of elements : 1549
Stream size : 48.3 KiB (0%)
Title : Full
Language : English
Default : No
Forced : No

pb.wtf



Скачать Секрет через торрент https://c.radikal.ru/c36/2009/b6/499d8b6ea71f.png Скачать фильм Секрет через торрент бесплантно в хорошем качестве Описание: Когда сильный шторм разрушает дом молодой вдовы с тремя детьми, на пороге появляется таинственный незнакомец. Всего за несколько ... 9.9 10 15
Info! Золотая раздача, скачанное не засчитывается.
Торрент: Зарегистрирован [2020-09-29 09:31] · скачан: 247 раз
Статус: √ проверено
Размер: 4.64 GB
Как cкачать? Как скачать Секрет через торрент | qTorrent

% Раздел Тема Автор DL S | L
Фильмы [HD 720p, 1080p] (Хороший звук DUB, MVO) [ 11.17 GB ] Секрет / The Secret: Dare to Dream [2020 BDRip 1080p] bober100 Скачать
2 | 1
Фильмы 2019-2020 [DVDrip, WEB-DLRip, HDrip] (DUB, MVO) [ 1.41 GB ] Секрет / The Secret: Dare to Dream [2020 BDRip] - Twi7ter Скачать
22 | 1
Фильмы [HD 720p, 1080p] (Хороший звук DUB, MVO) [ 6.3 GB ] Секрет / The Secret: Dare to Dream [2020 BDRip 720p] bober100 Скачать
2 | 0
Фильмы 2019-2020 [DVDrip, WEB-DLRip, HDrip] (DUB, MVO) [ 748 MB ] Секрет / The Secret: Dare to Dream [2020 WEB-DLRip-AVC] от MediaBit Lithuania Скачать
1 | 0
Фильмы 2019-2020 [DVDrip, WEB-DLRip, HDrip] (DUB, MVO) [ 1.46 GB ] Секрет / The Secret: Dare to Dream [2020 WEB-DLRip] bober100 Скачать
7 | 0
Фильмы 2019-2020 [DVDrip, WEB-DLRip, HDrip] (DUB, MVO) [ 746 MB ] Секрет / The Secret: Dare to Dream [2020 HDRip] bober100 Скачать
1 | 0
Фильмы с украинским озвучиванием [ 4.5 GB ] Секрет / The Secret: Dare to Dream [2020 WEB-DL 1080p] [Ukr DUB] killermax2013 Скачать
2 | 0

28-11-2019 20:33  

Отключить всю рекламу на сайте

    Дорогой пользователь! Огромная просьба, поблагодарите релизера, оцените раздачу и оставьте свои комментарий, если Вы скачали Секрет через торрент бесплатно! Внесите свою лепту в развитие PiratBit!
    Комментировать посты могут только пользователи прошедшие не сложную регистрацию
    Показать сообщения:    

    Секрет через торрент
    Скачать бесплатно Секрет
    Секрет скачать торрент
    Секрет смотреть онлайн
    Cкачать фильм Секрет бесплатно
    Секрет скачать торрент в хорошем качестве
    Секрет смотреть онлайн бесплатно в хорошем качестве


    Вы не можете начинать темы
    Вы не можете отвечать на сообщения
    Вы не можете редактировать свои сообщения
    Вы не можете удалять свои сообщения
    Вы не можете голосовать в опросах
    Вы не можете прикреплять файлы к сообщениям
    Вы можете скачивать файлы